Colorful – The Movie | 720p | BD-Rip | HEVC | Dual Audio | Tatakau Shisho | Markedsføring Salg

Скачать через торрент [VIDEO] Юхан Фальк 9 Йон Фальк. Ограбление века бесплатно русская версия torrent активатор

Статистика раздачи
Размер:  449 MB   |    Зарегистрирован:  28 дней   |    .torrent скачан:  12 раз   |   
Раздают:  1  
   
загрузка...
 
Автор Сообщение

Galfimbul

avatar Galfimbul


Юхан Фальк 9 / Йон Фальк. Ограбление века
Johan Falk. Alla rans moder

Год выпуска: 2012
Страна: Швеция (Strix Drama)
Жанр: Боевик, триллер, криминал
Продолжительность: 01:37:17
Перевод: Одноголосый закадровый [Pashaup]
Оригинальная дорожка: Нет
Субтитры: Нет
Режиссер: Андерс Нильссон / Anders Nilsson
В ролях: Якоб Эклунд, Йенс Хультен, Мелиз Карлге, Микаэл Торнвинг, Саймон Дж. Бергер, Ларс Андерссон, Michel Riddez, Александр Карим, Мартен Сведберг, Анастасиос Соулис
Описание: Очередная серия из популярного шведского киносериала о работе отдела по борьбе с организованной преступностью, который возглавляет комиссар Фальк. В этом фильме бравым шведским полицейским предстоит сразиться с бандой отчаянных воров, задумавших совершить "ограбление века": нападение на Королевский Банк.

Качество: DVDRip (Исходник)
Формат: MP4
Видео кодек: H.264
Аудио кодек: AAC
Видео: 480x264 (16:9), 512 kbps, 25.000 fps
Аудио: Русский, 2 ch, 48 kHz, 128 kbps [VO, Pashaup]

General
Complete name : H:\Фильмы\!!!RG\[VIDEO] Johan.Falk.Alla.Rans.Moder.2012.DVDRip.XviD.480x(semen_52-TNC).mp4
Format : MPEG-4
Format profile : Base Media
Codec ID : isom
File size : 449 MiB
Duration : 1h 37mn
Overall bit rate mode : Variable
Overall bit rate : 645 Kbps
Encoded date : UTC 2014-04-28 16:56:19
Tagged date : UTC 2014-04-28 16:58:03
Writing application : MkvToMp4 [www.mkvtomp4.ru] version: 0.224 (x64)
Comment : Rip by semen_52-TNC
stik : 9

Video
ID : 1
Format : MPEG-4 Visual
Format profile : Advanced [email protected]
Format settings, BVOP : No
Format settings, QPel : No
Format settings, GMC : No warppoints
Format settings, Matrix : Default (H.263)
Codec ID : 20
Duration : 1h 37mn
Bit rate mode : Variable
Bit rate : 512 Kbps
Maximum bit rate : 2 168 Kbps
Width : 480 pixels
Height : 264 pixels
Display aspect ratio : 16:9
Frame rate mode : Constant
Frame rate : 25.000 fps
Color space : YUV
Chroma subsampling : 4:2:0
Bit depth : 8 bits
Scan type : Progressive
Compression mode : Lossy
Bits/(Pixel*Frame) : 0.162
Stream size : 356 MiB (79%)
Writing library : XviD 73
Language : English
Tagged date : UTC 2014-04-28 16:56:28

Audio
ID : 2
Format : AAC
Format/Info : Advanced Audio Codec
Format profile : LC
Codec ID : 40
Duration : 1h 37mn
Bit rate mode : Variable
Bit rate : 128 Kbps
Maximum bit rate : 214 Kbps
Channel(s) : 2 channels
Channel positions : Front: L R
Sampling rate : 48.0 KHz
Compression mode : Lossy
Stream size : 89.1 MiB (20%)
Title : VO Pashaup
Language : Russian
Encoded date : UTC 2014-04-28 16:56:22
Tagged date : UTC 2014-04-28 16:56:28


Трекер:  [ 27-Май-2018 13:06 ]

  

Скачать .torrent

Размер .torrent файла 18 KB


Размер: 449 MB
Хэш (hash) релиза: de16525ef7e0fe85833e8892580544ed41f2f6e8

Еще никто не оставлял запись к записи скачать торрент [VIDEO] Юхан Фальк 9 Йон Фальк. Ограбление века . Будь первым!

!Обратная связь