Elementary S06E07 HDTV x264-LOL[eztv] | The Handmaids Tale S02E07 After 720p HULU WEBRip AAC2 0 H264-NTb[rarbg] | Last Week Tonight With John Oliver S05E15 720p HDTV X264-UAV[eztv]

Скачать через торрент [VIDEO] Свадебная вечеринка Die Bluthochzeit бесплатно русская версия torrent активатор

Статистика раздачи
Размер:  394 MB   |    Зарегистрирован:  28 дней   |    .torrent скачан:  11 раз   |   
Раздают:  1  
   
загрузка...
 
Автор Сообщение

Galfimbul

avatar Galfimbul


Свадебная вечеринка
Die Bluthochzeit

Год выпуска: 2005
Страна: Германия, Бельгия (Diana-Film, Erfttal Film, Fanes Film, Medienfonds GFP, MMG Film & TV Production, Typhoon AG)
Жанр: Боевик, драма, комедия
Продолжительность: 01:27:04
Перевод: Профессиональный (двухголосый закадровый) [НТВ+] (текст читали Ольга Голованова и Александр Котов)
Оригинальная дорожка: Нет
Субтитры: Нет
Режиссер: Доминик Дерюддер / Dominique Deruddere
В ролях: Армин Роде, Уве Оксенкнехт, Йозеф Хейнерт, Арне Ленк, Юлия Шмидт, Имоген Когге, Сандра Боргманн, Нанд Бюйль, Фабиан Хинрихс, Лиза Поттхофф
Описание: Черная комедия о том, как веселая свадебная вечеринка превращается в кровавое побоище с участием многочисленных родственников как со стороны жениха, так и со стороны невесты, а также немногочисленного, но воинственного персонала ресторанчика, где планировалось торжество. А все из-за чего? Просто папа жениха отказался платить за праздничный ужин…

Качество: DVDRip (Рип с DVDRip)
Формат: MP4
Видео кодек: XviD
Аудио кодек: AAC
Видео: 480х208 (2.35:1), 499kbps, 25.000 fps
Аудио: Русский, 2 ch, 48 kHz, 128 kbps [DVO, НТВ+]
General
Complete name : [VIDEO] Svadebnaya.Vecherinka.2005.DVDRip.XviD.480x(semen_52-TNC).mp4
Format : MPEG-4
Format profile : Base Media
Codec ID : isom
File size : 394 MiB
Duration : 1h 27mn
Overall bit rate mode : Variable
Overall bit rate : 632 Kbps
Encoded date : UTC 2014-04-18 13:06:55
Tagged date : UTC 2014-04-18 13:08:24
Writing application : MkvToMp4 version: 0.224 (x64)
Comment : Rip by semen_52-TNC
stik : 9

Video
ID : 1
Format : MPEG-4 Visual
Format profile : Advanced [email protected]
Format settings, BVOP : No
Format settings, QPel : Yes
Format settings, GMC : No warppoints
Format settings, Matrix : Default (H.263)
Codec ID : 20
Duration : 1h 27mn
Bit rate mode : Variable
Bit rate : 499 Kbps
Maximum bit rate : 3 255 Kbps
Width : 480 pixels
Height : 208 pixels
Display aspect ratio : 2.35:1
Frame rate mode : Constant
Frame rate : 25.000 fps
Color space : YUV
Chroma subsampling : 4:2:0
Bit depth : 8 bits
Scan type : Progressive
Compression mode : Lossy
Bits/(Pixel*Frame) : 0.200
Stream size : 311 MiB (79%)
Writing library : XviD 73
Language : English
Tagged date : UTC 2014-04-18 13:07:06

Audio
ID : 2
Format : AAC
Format/Info : Advanced Audio Codec
Format profile : LC
Codec ID : 40
Duration : 1h 27mn
Bit rate mode : Variable
Bit rate : 128 Kbps
Maximum bit rate : 231 Kbps
Channel(s) : 2 channels
Channel positions : Front: L R
Sampling rate : 48.0 KHz
Compression mode : Lossy
Stream size : 79.7 MiB (20%)
Title : DVO NTV_
Language : Russian
Encoded date : UTC 2014-04-18 13:07:00
Tagged date : UTC 2014-04-18 13:07:06


Трекер:  [ 27-Май-2018 13:06 ]

  

Скачать .torrent

Размер .torrent файла 16 KB


Размер: 394 MB
Хэш (hash) релиза: 28d7fa92afb8b8f9caac0a7e670ce8b48c9e3677

Еще никто не оставлял запись к записи скачать торрент [VIDEO] Свадебная вечеринка Die Bluthochzeit . Будь первым!

!Обратная связь