ALCATRAZ | 7 Days In Entebbe | Baramundi Management Suite v 7.5.3.

Скачать через торрент [VIDEO] Пиратское телевидение Télé gaucho бесплатно русская версия torrent активатор

Статистика раздачи
Размер:  491 MB   |    Зарегистрирован:  28 дней   |    .torrent скачан:  11 раз   |   
Раздают:  1  
   
загрузка...
 
Автор Сообщение

Galfimbul

avatar Galfimbul


Пиратское телевидение
Télé gaucho

Год выпуска: 2012
Страна: Франция, Бельгия (31 Juin Films, Scope Pictures)
Жанр: Комедия
Продолжительность: 01:48:21
Перевод: Профессиональный (многоголосый, закадровый)
Оригинальная дорожка: Нет
Субтитры: Нет
Режиссер: Мишель Леклерк / Michel Leclerc
В ролях: Феликс Моати, Эрик Элмоснино, Сара Форестье, Майвенн Ле Беско, Эммануэль Беар, Янник Шуара, Зинедин Суалем, Самир Гесми, Франсуа-Эрик Жандрон, Кристиана Милле
Описание: Виктор, безмерно счастлив - он получил место в парижской телекомпании и теперь переезжает из заштатного городка в столицу, где начинает работать стажером на телеканале. Немного поднабравшись опыта и познакомившись с телепиратами, Виктор решает пойти несколько иным путем и принимается снимать альтернативные новости. Теперь в его репортажах мелькают то владелец похоронного бюро, то эксцентричная подружка нашего героя, то будни-праздники коренного парижского населения, в которых, надо сказать, страсти кипят ничуть не меньшие, чем в каком-нибудь ток-шоу на телеканале в прайм-тайм. Вооружившись камерой, герой торопится оказаться в самой гуще событий Парижа. Но самые интересные кадры в его карьере еще впереди...

Качество: HDRip (Рип с HDRip)
Формат: MP4
Видео кодек: XviD
Аудио кодек: AAC
Видео: 480х256 (1.85:1), 500 kbps, 25.000 fps
Аудио: Русский, 2 ch, 48 kHz, 128 kbps [MVO]
General
Complete name : [VIDEO] Tele.Gaucho.2012.HDRip.XviD.480x(semen_52-TNC).mp4
Format : MPEG-4
Format profile : Base Media
Codec ID : isom
File size : 491 MiB
Duration : 1h 48mn
Overall bit rate mode : Variable
Overall bit rate : 633 Kbps
Encoded date : UTC 2014-03-23 15:58:14
Tagged date : UTC 2014-03-23 15:59:12
Writing application : MkvToMp4 version: 0.224 (x64)
Comment : Rip by semen-52-TNC
stik : 9

Video
ID : 1
Format : MPEG-4 Visual
Format profile : Advanced [email protected]
Format settings, BVOP : No
Format settings, QPel : No
Format settings, GMC : No warppoints
Format settings, Matrix : Default (H.263)
Codec ID : 20
Duration : 1h 48mn
Bit rate mode : Variable
Bit rate : 500 Kbps
Maximum bit rate : 4 491 Kbps
Width : 480 pixels
Height : 256 pixels
Display aspect ratio : 1.85:1
Frame rate mode : Constant
Frame rate : 25.000 fps
Color space : YUV
Chroma subsampling : 4:2:0
Bit depth : 8 bits
Scan type : Progressive
Compression mode : Lossy
Bits/(Pixel*Frame) : 0.163
Stream size : 387 MiB (79%)
Writing library : XviD 73
Language : English
Tagged date : UTC 2014-03-23 15:58:23

Audio
ID : 2
Format : AAC
Format/Info : Advanced Audio Codec
Format profile : LC
Codec ID : 40
Duration : 1h 48mn
Bit rate mode : Variable
Bit rate : 128 Kbps
Maximum bit rate : 147 Kbps
Channel(s) : 2 channels
Channel positions : Front: L R
Sampling rate : 48.0 KHz
Compression mode : Lossy
Stream size : 99.2 MiB (20%)
Title : MVO
Language : Russian
Encoded date : UTC 2014-03-23 15:58:18
Tagged date : UTC 2014-03-23 15:58:23


Трекер:  [ 27-Май-2018 13:06 ]

  

Скачать .torrent

Размер .torrent файла 19 KB


Размер: 491 MB
Хэш (hash) релиза: fe6dc56d25e5472e1016bd7d557c3ff43275cf90

Еще никто не оставлял запись к записи скачать торрент [VIDEO] Пиратское телевидение Télé gaucho . Будь первым!

!Обратная связь