00-aretha_franklin-young_gifted_and_black-1993-llf.sfv | Charlie Puth - Done For Me (feat. Kehlani) | Selina Giles

Скачать через торрент [VIDEO] Калеуче: Зов моря Caleuche: El llamado del mar бесплатно русская версия torrent активатор

Статистика раздачи
Размер:  452 MB   |    Зарегистрирован:  28 дней   |    .torrent скачан:  11 раз   |   
Раздают:  1  
   
загрузка...
 
Автор Сообщение

Galfimbul

avatar Galfimbul


Калеуче: Зов моря
Caleuche: El llamado del mar

Год выпуска: 2012
Страна: Чили (Angel Films Producciones, Canal 13, Olguin Film Ltda., Olguin Films)
Жанр: Ужасы, фэнтези, драма
Продолжительность: 01:39:54
Перевод: Профессиональный (многоголосый закадровый)
Оригинальная дорожка: Нет
Субтитры: Нет
Режиссер: Хорхе Ольгин / Jorge Olguín
В ролях: Матиас Хара, Хорхе Яньес, Уил Эдгар, Пабло Шварц, Лус Вальдивьесо, Марсело Алонсо, Виктор Монтеро, Эдуардо Паксеко, Каталина Сааведра, Жизель Итье, Хуан Пабло Миранда
Описание: Изабель — морской исследователь латинского происхождения, работающая в Соединенных Штатах, серьёзное заболевание которой вынуждает её покинуть работу. В целях оздоровления она отправляется на остров Чилоэ, что на юге Чили, и изучая историю своих предков, узнаёт о существовании удивительной легенды про корабль-призрак под названием Калеуче, который пагубно влияет на жизнь местных обитателей.

Качество: WEB-DLRip (Рип с WEB-DLRip)
Формат: MP4
Видео кодек: XviD
Аудио кодек: AAC
Видео: 480х264 (16:9), 500 kbps, 25.000 fps
Аудио: Русский, 2 ch, 48 kHz, 128 kbps [MVO]
General
Complete name : [VIDEO] Kaleyche.Zov.morya.2012.XviD.480x(semen_52-TNC).mp4
Format : MPEG-4
Format profile : Base Media
Codec ID : isom
File size : 452 MiB
Duration : 1h 39mn
Overall bit rate mode : Variable
Overall bit rate : 633 Kbps
Encoded date : UTC 2014-04-13 12:53:21
Tagged date : UTC 2014-04-13 12:54:43
Writing application : MkvToMp4 version: 0.224 (x64)
Comment : Rip by semen_52-TNC
stik : 9

Video
ID : 1
Format : MPEG-4 Visual
Format profile : Advanced [email protected]
Format settings, BVOP : No
Format settings, QPel : Yes
Format settings, GMC : No warppoints
Format settings, Matrix : Default (H.263)
Codec ID : 20
Duration : 1h 39mn
Bit rate mode : Variable
Bit rate : 499 Kbps
Maximum bit rate : 3 121 Kbps
Width : 480 pixels
Height : 264 pixels
Display aspect ratio : 16:9
Frame rate mode : Constant
Frame rate : 25.000 fps
Color space : YUV
Chroma subsampling : 4:2:0
Bit depth : 8 bits
Scan type : Progressive
Compression mode : Lossy
Bits/(Pixel*Frame) : 0.158
Stream size : 357 MiB (79%)
Writing library : XviD 73
Language : English
Tagged date : UTC 2014-04-13 12:54:07

Audio
ID : 2
Format : AAC
Format/Info : Advanced Audio Codec
Format profile : LC
Codec ID : 40
Duration : 1h 39mn
Bit rate mode : Variable
Bit rate : 128 Kbps
Maximum bit rate : 149 Kbps
Channel(s) : 2 channels
Channel positions : Front: L R
Sampling rate : 48.0 KHz
Compression mode : Lossy
Stream size : 91.5 MiB (20%)
Title : MVO
Language : Russian
Encoded date : UTC 2014-04-13 12:54:02
Tagged date : UTC 2014-04-13 12:54:07


Трекер:  [ 27-Май-2018 13:06 ]

  

Скачать .torrent

Размер .torrent файла 18 KB


Размер: 452 MB
Хэш (hash) релиза: ab3657956b6a3d11717dcef252cd86dc5a994766

Еще никто не оставлял запись к записи скачать торрент [VIDEO] Калеуче: Зов моря Caleuche: El llamado del mar . Будь первым!

!Обратная связь