Jeffrey Wright | Stephen Williams | HD Westworld S02E07 2018 8.9 Mystery Sci-fi Drama

Скачать через торрент [VIDEO] Сахар Le sucre бесплатно русская версия torrent активатор

Статистика раздачи
Размер:  467 MB   |    Зарегистрирован:  28 дней   |    .torrent скачан:  12 раз   |   
Раздают:  1  
   
загрузка...
 
Автор Сообщение

Galfimbul

avatar Galfimbul


Сахар
Le sucre

Год выпуска: 1978
Страна: Франция (Cinéproduction, Gaumont, Société Française de Production (SFP))
Жанр: Триллер, драма, криминал
Продолжительность: 01:43:25
Перевод: Профессиональный (многоголосый закадровый)
Оригинальная дорожка: Нет
Субтитры: Нет
Режиссер: Жак Руфьё / Jacques Rouffio
В ролях: Жан Карме, Жерар Депардье, Мишель Пикколи, Нелли Боржо, Жорж Декриер, Роже Анен, Марта Виллалонга, Жан-Поль Мюэль, Клод Пьеплю
Описание: Адриен Куртуа, муж зажиточной хозяйки аптеки, однажды решил на деньги жены поиграть на товарной бирже. И конечно же он попадает в лапы «акулам с Уолл-стрит» в лице нечестного брокера Рауля Омекура, сахарного олигарха Грезильо, биржевого спекулянта Карбуи и других ушлых прощелыг крупного и среднего формата, затеявших биржевую аферу с сахаром. Доверчивый бедолага Куртуа на деньги жены впрягся в рискованную игру, и до поры до времени дела у него шли неплохо…

Качество: HDRip (Рип с BDRip 720p)
Формат: MP4
Видео кодек: XviD
Аудио кодек: AAC
Видео: 448х272 (1.647:1), 499 kbps, 24.000 fps
Аудио: Русский, 2 ch, 48 kHz, 128 kbps [MVO]
General
Complete name : F:\Фильмы\!!!RG\[VIDEO] Le.sucre.1978.HDRip.x264.960x(semen_52-TNC).mp4
Format : MPEG-4
Format profile : Base Media
Codec ID : isom
File size : 467 MiB
Duration : 1h 43mn
Overall bit rate mode : Variable
Overall bit rate : 632 Kbps
Encoded date : UTC 2014-03-27 01:34:12
Tagged date : UTC 2014-03-27 01:34:33
Writing application : MkvToMp4 [www.mkvtomp4.ru] version: 0.224 (x64)
Comment : Rip by semen_52-TNC
stik : 9

Video
ID : 1
Format : MPEG-4 Visual
Format profile : Advanced [email protected]
Format settings, BVOP : No
Format settings, QPel : No
Format settings, GMC : No warppoints
Format settings, Matrix : Default (H.263)
Codec ID : 20
Duration : 1h 43mn
Bit rate mode : Variable
Bit rate : 499 Kbps
Maximum bit rate : 2 812 Kbps
Width : 448 pixels
Height : 272 pixels
Display aspect ratio : 1.647
Frame rate mode : Constant
Frame rate : 24.000 fps
Color space : YUV
Chroma subsampling : 4:2:0
Bit depth : 8 bits
Scan type : Progressive
Compression mode : Lossy
Bits/(Pixel*Frame) : 0.171
Stream size : 369 MiB (79%)
Writing library : XviD 73
Language : English
Tagged date : UTC 2014-03-27 01:34:21

Audio
ID : 2
Format : AAC
Format/Info : Advanced Audio Codec
Format profile : LC
Codec ID : 40
Duration : 1h 43mn
Bit rate mode : Variable
Bit rate : 127 Kbps
Maximum bit rate : 180 Kbps
Channel(s) : 2 channels
Channel positions : Front: L R
Sampling rate : 48.0 KHz
Compression mode : Lossy
Stream size : 94.3 MiB (20%)
Title : MVO
Language : Russian
Encoded date : UTC 2014-03-27 01:34:16
Tagged date : UTC 2014-03-27 01:34:21


Трекер:  [ 27-Май-2018 13:06 ]

  

Скачать .torrent

Размер .torrent файла 18 KB


Размер: 467 MB
Хэш (hash) релиза: ae1df694a7fc48fe2257cd37ec9512c3979cace4

Еще никто не оставлял запись к записи скачать торрент [VIDEO] Сахар Le sucre . Будь первым!

!Обратная связь