Wi Fi Pirate 13 программа для взлома Wi Fi (2013) PC(скачиваний: 82) | XenForo Add-ons by Brivium 2012-2018 Brivium LLC. | Рэмпейдж / Rampage (2018) BDRip 720p от HELLYWOOD | iTunes

Скачать через торрент [VIDEO] Болезнь любви Любовный недуг бесплатно русская версия torrent активатор

Статистика раздачи
Размер:  577 MB   |    Зарегистрирован:  2 месяца 23 дня   |    .torrent скачан:  15 раз   |   
Раздают:  1  
   
загрузка...
 
Автор Сообщение

Galfimbul

avatar Galfimbul


Болезнь любви / Любовный недуг
Maladie d'amour

Год выпуска: 1987
Страна: Франция (France 3 Cinéma, Oliane Productions)
Жанр: Драма, мелодрама
Продолжительность: 01:53:30
Перевод 1: Профессиональный (полное дублирование) [Мосфильм]
Перевод 2: Профессиональный (многоголосый, закадровый) [Cinema Prestige]
Оригинальная дорожка: Нет
Субтитры: Нет
Режиссер: Жак Дере / Jacques Deray
В ролях: Настасья Кински / Nastassja Kinski, Мишель Пикколи / Michel Piccoli, Жан-Юг Англад / Jean-Hugues Anglade, Жан-Клод Бриали / Jean-Claude Brialy, Катрин Жакоб / Catherine Jacob, Суад Амиду / Souad Amidou
Описание: Провинциалка Жюльетт, приехавшая в Париж «искать счастье», работает в престижном косметическом салоне. Один из клиентов — видный хирург Рауль Бержерон — обращает на неё внимание и предлагает жить с ним. Жюльетт соглашается. Однако, в результате стечения обстоятельств, она знакомится с его подчинённым, перспективным практикантом Клеманом Потрелем. Поддавшись внезапному увлечению, Жюльетт уезжает с ним за город. Потрель открывает в посёлке частную практику, но не видит в этом никакой самореализации. Жюльетт, быстро осознав, что лишь Бержерон способен содействовать успешной карьере Потреля, возвращается к нему. Но вскоре врачи обнаруживают у неё болезнь, против которой медицина бессильна.

Качество: DVDRip (Рип с DVD5)
Формат: MP4
Видео кодек: XviD
Аудио кодек: AAC
Видео: 480x264 (16:9), 450 kbps, 25.000 fps
Аудио 1: Русский, 2 ch, 48 kHz, 128 kbps [Dub, Мосфильм]
Аудио 2: Русский, 2 ch, 48 kHz, 128 kbps [MVO, Cinema Prestige]
Сезар, 1988 год
Номинации (1):
Лучшая актриса (Настасья Кински)
General
Complete name : F:\Фильмы\!!!RG\[VIDEO] Maladie.D'amour.1987.XviD.480x(semen_52-TNC).mp4
Format : MPEG-4
Format profile : Base Media
Codec ID : isom
File size : 577 MiB
Duration : 1h 53mn
Overall bit rate mode : Variable
Overall bit rate : 710 Kbps
Encoded date : UTC 2014-01-20 13:42:22
Tagged date : UTC 2014-01-20 13:42:22

Video
ID : 1
Format : MPEG-4 Visual
Format profile : Advanced [email protected]
Format settings, BVOP : No
Format settings, QPel : Yes
Format settings, GMC : No warppoints
Format settings, Matrix : Default (H.263)
Codec ID : 20
Duration : 1h 53mn
Bit rate mode : Variable
Bit rate : 450 Kbps
Maximum bit rate : 2 055 Kbps
Width : 480 pixels
Height : 264 pixels
Display aspect ratio : 16:9
Frame rate mode : Constant
Frame rate : 25.000 fps
Color space : YUV
Chroma subsampling : 4:2:0
Bit depth : 8 bits
Scan type : Progressive
Compression mode : Lossy
Bits/(Pixel*Frame) : 0.142
Stream size : 365 MiB (63%)
Writing library : XviD 73
Encoded date : UTC 2014-01-20 13:42:22
Tagged date : UTC 2014-01-20 13:42:32

Audio #1
ID : 2
Format : AAC
Format/Info : Advanced Audio Codec
Format profile : LC
Codec ID : 40
Duration : 1h 53mn
Bit rate mode : Variable
Bit rate : 128 Kbps
Maximum bit rate : 133 Kbps
Channel(s) : 2 channels
Channel positions : Front: L R
Sampling rate : 48.0 KHz
Compression mode : Lossy
Stream size : 104 MiB (18%)
Title : Dub Mosfilm
Language : Russian
Encoded date : UTC 2014-01-20 13:42:26
Tagged date : UTC 2014-01-20 13:42:32

Audio #2
ID : 3
Format : AAC
Format/Info : Advanced Audio Codec
Format profile : LC
Codec ID : 40
Duration : 1h 53mn
Bit rate mode : Variable
Bit rate : 128 Kbps
Maximum bit rate : 133 Kbps
Channel(s) : 2 channels
Channel positions : Front: L R
Sampling rate : 48.0 KHz
Compression mode : Lossy
Stream size : 104 MiB (18%)
Title : MVO Cinema Prestige
Language : Russian
Encoded date : UTC 2014-01-20 13:42:29
Tagged date : UTC 2014-01-20 13:42:32


Трекер:  [ 27-Май-2018 13:06 ]

  

Скачать .torrent

Размер .torrent файла 11 KB


Размер: 577 MB
Хэш (hash) релиза: b2c917cfc37e2ab6cc015d887a627cad417c07bf

Еще никто не оставлял запись к записи скачать торрент [VIDEO] Болезнь любви Любовный недуг . Будь первым!

!Обратная связь