Watch movie | THE STRANGERS 2: PREY AT NIGHT 2 (2018) | Ce'Onna Meilani Johnson

Скачать через торрент [VIDEO] Больная Sick Girl бесплатно русская версия torrent активатор

Статистика раздачи
Размер:  328 MB   |    Зарегистрирован:  28 дней   |    .torrent скачан:  10 раз   |   
Раздают:  1  
   
загрузка...
 
Автор Сообщение

Galfimbul

avatar Galfimbul


Больная
Sick Girl

Год выпуска: 2007
Страна: США (My Way Pictures)
Жанр: Ужасы, триллер, трэш
Продолжительность: 01:18:36
Перевод: Одноголосый закадровый [Переводчик не опознан]
Оригинальная дорожка: Нет
Субтитры: Нет
Режиссер: Эбен МакГарр / Eben McGarr
В ролях: Лесли Эндрюс, Джон МакГарр, Charlie Trepany, Йен Виллалобос, Katherine Macanufo, Грэхэм Денман, Стивен Джеффрис, Крис В. Кинг, Шон Слэттери, Джастин Марко
Описание: У Иззи (в психологическом отношении искалеченная девочка-подросток) есть проблемы: её родители куда-то потерялись, и когда её старшего брата забирают в армию, чтобы затем отправить в Ирак, она вынуждена стать единственным опекуном своего младшего брата Кевина. К счастью, её приятель Барни (байкер) всегда готов оказать помощь, но этого всё-таки не достаточно, чтобы сделать жизнь Иззи стабильной. Чтобы выпустить пар, Иззи часто мучает людей в сарае около своего дома…

Качество: DVDRip (Рип с DVD9 (Custom))
Формат: MP4
Видео кодек: XviD
Аудио кодек: AAC
Видео: 480х272 (16:9), 450 kbps, 23.976 fps
Аудио: Русский, 2 ch, 48 kHz, 128 kbps [VO, Unknown]
General
Complete name : [VIDEO] Sick.Girl.2007.DVDRip.XviD.480x(semen_52-TNC).mp4
Format : MPEG-4
Format profile : Base Media
Codec ID : isom
File size : 328 MiB
Duration : 1h 18mn
Overall bit rate mode : Variable
Overall bit rate : 583 Kbps
Movie name : [VIDEO] Sick Girl 2007 DVDRip XviD 480x(semen_52-TNC)
Encoded date : UTC 2014-08-26 12:52:48
Tagged date : UTC 2014-08-26 12:53:40
Writing application : MkvToMp4 version: 0.224 (x64)
Comment : Rip by smen_52-TNC
stik : 9

Video
ID : 1
Format : MPEG-4 Visual
Format profile : Advanced [email protected]
Format settings, BVOP : No
Format settings, QPel : Yes
Format settings, GMC : No warppoints
Format settings, Matrix : Custom
Codec ID : 20
Duration : 1h 18mn
Bit rate mode : Variable
Bit rate : 450 Kbps
Maximum bit rate : 1 192 Kbps
Width : 480 pixels
Height : 272 pixels
Display aspect ratio : 16:9
Frame rate mode : Constant
Frame rate : 23.976 fps
Color space : YUV
Chroma subsampling : 4:2:0
Bit depth : 8 bits
Scan type : Progressive
Compression mode : Lossy
Bits/(Pixel*Frame) : 0.144
Stream size : 253 MiB (77%)
Writing library : XviD 73
Language : English
Tagged date : UTC 2014-08-26 12:53:03

Audio
ID : 2
Format : AAC
Format/Info : Advanced Audio Codec
Format profile : LC
Codec ID : 40
Duration : 1h 18mn
Bit rate mode : Variable
Bit rate : 128 Kbps
Maximum bit rate : 193 Kbps
Channel(s) : 2 channels
Channel positions : Front: L R
Sampling rate : 48.0 KHz
Compression mode : Lossy
Stream size : 71.9 MiB (22%)
Title : VO Unknown
Language : Russian
Encoded date : UTC 2014-08-26 12:52:52
Tagged date : UTC 2014-08-26 12:53:03


Трекер:  [ 27-Май-2018 13:06 ]

  

Скачать .torrent

Размер .torrent файла 13 KB


Размер: 328 MB
Хэш (hash) релиза: 8c5941b94f91e07625461e845375b86749d5c4de

Еще никто не оставлял запись к записи скачать торрент [VIDEO] Больная Sick Girl . Будь первым!

!Обратная связь