Audioaddon/ cdc-golden_eye-ea.sfv | Adventure | Aventure

Скачать через торрент [VIDEO] Бегущий по лезвию 2049 Blade Runner 2049 бесплатно русская версия torrent активатор

Статистика раздачи
Размер:  674 MB   |    Зарегистрирован:  28 дней   |    .torrent скачан:  14 раз   |   
Раздают:  1  
   
загрузка...
 
Автор Сообщение

Galfimbul

avatar Galfimbul


Бегущий по лезвию 2049 / Blade Runner 2049


Год выпуска: 2017
Страна: США, Великобритания, Венгрия, Канада
Жанр: фантастика, триллер, драма
Продолжительность: 02:43:27
Перевод: русский Профессиональный (полное дублирование) Blu-Ray EUR
Субтитры: нет
Режиссер: Дени Вильнёв / Denis Villeneuve
В ролях: Райан Гослинг, Харрисон Форд, Джаред Лето, Ана де Армас, Сильвия Хукс, Робин Райт, Маккензи Дэвис, Карла Юри, Ленни Джеймс, Дэйв Батиста и другие .
Описание: В недалеком будущем мир населен людьми и репликантами, созданными выполнять самую тяжелую работу. Работа офицера полиции Кей — держать репликантов под контролем в условиях нарастающего напряжения… Пока он случайно не становится обладателем секретной информации, которая ставит под угрозу существование всего человечества. Желая найти ключ к разгадке, Кей решает разыскать Рика Декарда, бывшего офицера специального подразделения полиции Лос-Анджелеса, который бесследно исчез много лет назад .
Релиз группы

Качество: BDRip / рип с Blu-ray disc 1080p [EUR]
Формат: MP4
Видео кодек: XviD
Аудио кодек: AAC
Видео: 480x200 AR:2.40 445 kbps 23.976 fps
Аудио: [Russian] 2ch 48 kHz 128 kbps - [Dub] Профессиональный (полное дублирование) Blu-Ray EUR
ОбщееПолное имя : D:\Torrents\Blade Runner 2049.2017.BDRip.XviD.480x.rip by Frost O.S.mp4Формат : MPEG-4Профиль формата : Base MediaИдентификатор кодека : isom (isom)Размер файла : 674 МбайтПродолжительность : 2 ч. 43 м.Режим общего битрейта : ПеременныйОбщий поток : 577 Кбит/секДата кодирования : UTC 2018-05-27 08:14:17Дата пометки : UTC 2018-05-27 08:14:17Программа кодирования : My MP4Box GUI 0.6.0.6

ВидеоИдентификатор : 1Формат : MPEG-4 VisualПрофиль формата : Advanced [email protected]Настройки формата : BVOP / Custom MatrixПараметр BVOP формата : ДаПараметр QPel формата : НетПараметр GMC формата : Без точки переходаПараметр матрицы формата : ВыборочнаяИдентификатор кодека : mp4v-20Продолжительность : 2 ч. 43 м.Вид битрейта : ПеременныйБитрейт : 445 Кбит/секМаксимальный битрейт : 4934 Кбит/секШирина : 480 пикселейВысота : 200 пикселейСоотношение сторон : 2,40:1Режим частоты кадров : ПостоянныйЧастота кадров : 23,976 (24000/1001) кадра/секЦветовое пространство : YUVСубдискретизация насыщенности : 4:2:0Битовая глубина : 8 битТип развёртки : ПрогрессивнаяМетод сжатия : С потерямиБит/(Пиксели*Кадры) : 0.193Размер потока : 520 Мбайт (77%)Заголовок : Blade Runner 2049.2017.BDRip.XviD.480x.rip by Frost O.SБиблиотека кодирования : XviD 1.2.1 (UTC 2008-12-04)Дата кодирования : UTC 2018-05-27 08:14:17Дата пометки : UTC 2018-05-27 08:14:30

АудиоИдентификатор : 2Формат : AACФормат/Информация : Advanced Audio CodecПрофиль формата : LCИдентификатор кодека : mp4a-40-2Продолжительность : 2 ч. 43 м.Вид битрейта : ПеременныйБитрейт : 128 Кбит/секМаксимальный битрейт : 136 Кбит/секКаналы : 2 каналаРасположение каналов : Front: L RЧастота : 48,0 КГцЧастота кадров : 46,875 кадров/сек (1024 SPF)Метод сжатия : С потерямиРазмер потока : 150 Мбайт (22%)Заголовок : Russian / Dub, Blu-Ray EURДата кодирования : UTC 2018-05-27 08:14:19Дата пометки : UTC 2018-05-27 08:14:30


Трекер:  [ 27-Май-2018 11:36 ]

  

Скачать .torrent

Размер .torrent файла 13 KB


Размер: 674 MB
Хэш (hash) релиза: dfdf609a53da2b7f9299aa02f8513a889102dcb4

Еще никто не оставлял запись к записи скачать торрент [VIDEO] Бегущий по лезвию 2049 Blade Runner 2049 . Будь первым!

!Обратная связь