Watatatow saison 2 épisode 6 | Detroit 2017 | Suzanne Jaehne

Скачать через торрент «Международная пилорама» с Тиграном Кеосаяном Фильм бесплатно в хорошем качестве torrent

Скачивайте на UnionPeer.org фильмы через торрент без регистрации. Новинки кино в хорошем качестве через торрент. На UnionPeer.org можно скачать через торрент фильмы 2014 и 2015 годов. Самые новые фильмы.

Скачать торрент «Международная пилорама» с Тиграном Кеосаяном бесплатно через .torrent фильм мультфильм сериал

Статистика раздачи
Размер:  1.43 GB   |    Зарегистрирован:  29 дней   |    .torrent скачан:  21 раз   |   
Раздают:  1  
   
загрузка...
 
Автор Сообщение

Galfimbul

avatar Galfimbul


«Международная пилорама» с Тиграном Кеосаяном (2018.05.26)

Дата/Год выпуска: 2018
Страна: Россия
Жанр: Юмористическое политическое шоу
Продолжительность: 00:38:32
Перевод: Не требуется
Русские субтитры: нет

Оригинальная аудиодорожка: русский
Телеканал: НТВ
Описание: «Международная пилорама» сэкономит время телезрителей. Следить за политической обстановкой в мире, колебаниями курсов валют и новостями шоу-бизнеса теперь вовсе не обязательно. Каждую субботу Тигран Эдмондович в свойственной ему язвительной манере будет разбирать события мировой политики. Под огонь его едких комментариев попадут многие — от журналистов до политических лидеров.


В Санкт-Петербург Эмманюэль Макрон и Владимир Путин обсудили иранскую сделку, внутриукраинский кризис и проблемы Ближнего Востока. В общем, обсудили все, к чему Франция не имеет никакого отношения.

Также Путин подарил супруге Макрона букет, который еще на прошлой неделе забыла Ангела Меркель, и предупредил, чтобы Макрон держал свою собаку подальше от каминов.

«Цвет настроения Джимми-Джимми»: что больше понравилось Владимиру Путину — индийское кино или болгарские сказки?

Как кот Мостик полез поперед батьки в пекло и сколько подписчиков уже набрал усатый персонаж?

Великобритания нанесла сокрушительный удар по своей экономике и не продлила Роману Абрамовичу визу!
[b]качество: HDTVRip 1080p
формат: MP4
Видео: AVC, 1920x1080, (16:9), 25 fps, 5.0 Mbps
Аудио: RUS, AAC, 2 ch, 48 KHz, 317 Kbps
GeneralComplete name : C:\«Международная пилорама» с Тиграном Кеосаяном 2018.05.26.mp4Format : MPEG-4Format profile : Base Media / Version 2Codec ID : mp42 (mp42/mp41)File size : 1.43 GiBDuration : 38 min 32 sOverall bit rate mode : VariableOverall bit rate : 5 316 kb/sEncoded date : UTC 2018-05-26 04:45:19Tagged date : UTC 2018-05-26 04:45:34TIM : 00:00:00:00TSC : 25TSZ : 1

VideoID : 1Format : AVCFormat/Info : Advanced Video CodecFormat profile : [email protected] settings : CABAC / 3 Ref FramesFormat settings, CABAC : YesFormat settings, RefFrames : 3 framesCodec ID : avc1Codec ID/Info : Advanced Video CodingDuration : 38 min 32 sBit rate : 4 995 kb/sWidth : 1 920 pixelsHeight : 1 080 pixelsDisplay aspect ratio : 16:9Frame rate mode : ConstantFrame rate : 25.000 FPSStandard : PALColor space : YUVChroma subsampling : 4:2:0Bit depth : 8 bitsScan type : ProgressiveBits/(Pixel*Frame) : 0.096Stream size : 1.34 GiB (94%)Language : EnglishEncoded date : UTC 2018-05-26 04:45:19Tagged date : UTC 2018-05-26 04:45:19Color range : LimitedColor primaries : BT.709Transfer characteristics : BT.709Matrix coefficients : BT.709

AudioID : 2Format : AACFormat/Info : Advanced Audio CodecFormat profile : LCCodec ID : mp4a-40-2Duration : 38 min 32 sSource duration : 38 min 32 sBit rate mode : VariableBit rate : 317 kb/sMaximum bit rate : 332 kb/sChannel(s) : 2 channelsChannel positions : Front: L RSampling rate : 48.0 kHzFrame rate : 46.875 FPS (1024 SPF)Compression mode : LossyStream size : 87.5 MiB (6%)Source stream size : 87.5 MiB (6%)Language : EnglishEncoded date : UTC 2018-05-26 04:45:19Tagged date : UTC 2018-05-26 04:45:19


Трекер:  [ 27-Май-2018 11:12 ]

  

Скачать .torrent

Размер .torrent файла 15 KB


Размер: 1.43 GB
Хэш (hash) релиза: 7bf0e06b14fc269727dcd2996a16fff6284c8c68
Подписка на обновления:

Торренты, похожие на «Международная пилорама» с Тиграном Кеосаяном скачать торрент

Форум Название Автор Размер S L Добавлен
Развлекательные телепередачи и шоу ·· «Международная пилорама» с Тиграном Кеосаяном (2018.06.10) [2018, Юмористическое политическое шоу, HDTV 1080i, RUS] Galfimbul 22187838962.07 GB 0 0 1529217727

09:42

17-Июн-18

Развлекательные телепередачи и шоу ·· «Международная пилорама» с Тиграном Кеосаяном (2018.06.16) [2018, Юмористическое политическое шоу, HDTV 1080i, RUS] Galfimbul 23803007122.22 GB 0 0 1529215926

09:12

17-Июн-18

Развлекательные телепередачи и шоу ·· «Международная пилорама» с Тиграном Кеосаяном (2018.06.02) [2018, Юмористическое политическое шоу, HDTV 1080i] Galfimbul 27130315722.53 GB 0 0 1528103531

12:12

4-Июн-18

Развлекательные телепередачи и шоу ·· «Международная пилорама» с Тиграном Кеосаяном (2018.05.19) [2018, Юмористическое политическое шоу, HDTVRip 1080i] Galfimbul 18088264871.68 GB 0 0 1527149533

11:12

24-Май-18

Развлекательные телепередачи и шоу ·· «Международная пилорама» с Тиграном Кеосаяном (2018.05.12) [2018, Юмористическое политическое шоу, HDTV 1080i] Galfimbul 31427309522.93 GB 0 0 1526402531

19:42

15-Май-18

Развлекательные телепередачи и шоу ·· Международная пилорама с Тиграном Кеосаяном (2018.04.21) [2018, Юмористическое политическое шоу, HDTV 1080i] Galfimbul 20173052361.88 GB 0 0 1524467527

10:12

23-Апр-18

Развлекательные телепередачи и шоу ·· Международная пилорама с Тиграном Кеосаяном 2018.04.14 [2018, Юмористическое политическое шоу, DVB] Galfimbul 893802308852 MB 0 0 1524211930

11:12

20-Апр-18

Развлекательные телепередачи и шоу ·· Международная пилорама с Тиграном Кеосаяном 2018.04.07 [2018, Юмористическое политическое шоу, HDTV 1080i] Galfimbul 25884425592.41 GB 0 0 1523337126

08:12

10-Апр-18

Развлекательные телепередачи и шоу ·· Международная пилорама с Тиграном Кеосаяном 2018.03.24 [2018, Юмористическое политическое шоу, HDTV 1080i] Galfimbul 30761408812.86 GB 0 0 1522042931

08:42

26-Мар-18

Развлекательные телепередачи и шоу ·· Международная пилорама с Тиграном Кеосаяном 2018.03.17 [2018, Юмористическое политическое шоу, HDTV 1080i] Galfimbul 24308681302.26 GB 0 0 1521412930

01:42

19-Мар-18

Развлекательные телепередачи и шоу ·· Международная пилорама с Тиграном Кеосаяном 2018.03.10 [2018, Юмористическое политическое шоу, HDTV 1080i] Galfimbul 27903732692.6 GB 0 0 1521115930

15:12

15-Мар-18

Развлекательные телепередачи и шоу ·· Международная пилорама с Тиграном Кеосаяном 2018.03.03 [2018, Юмористическое политическое шоу, HDTV 1080i] Galfimbul 20821307001.94 GB 0 0 1520286278

00:44

6-Мар-18

Развлекательные телепередачи и шоу ·· Международная пилорама с Тиграном Кеосаяном 2018.02.10 [2018, Юмористическое политическое шоу, HDTVRip 1080p, RUS] Galfimbul 885403261844 MB 0 0 1518414308

08:45

12-Фев-18

Развлекательные телепередачи и шоу ·· Международная пилорама с Тиграном Кеосаяном 2018.01.21 [21.01.2018, Юмористическое политическое шоу, DVB] Galfimbul 737085201703 MB 0 0 1516698929

12:15

23-Янв-18

Развлекательные телепередачи и шоу ·· Международная пилорама с Тиграном Кеосаяном 2017.10.28 [5, 5, PDTVRip] Galfimbul 30372396402.83 GB 0 0 1509232561

02:16

29-Окт-17

Развлекательные телепередачи и шоу ·· Международная пилорама с Тиграном Кеосаяном 2017.05.28 [2017, Юмористическое политическое шоу, HDTVRip 720p] Galfimbul 904773493863 MB 0 0 1496059469

15:04

29-Май-17

Развлекательные телепередачи и шоу ·· Международная пилорама с Тиграном Кеосаяном 2017.05.28 [2017, Юмористическое политическое шоу, HDTV 1080i] Galfimbul 34680997323.23 GB 0 0 1496004937

23:55

28-Май-17

Еще никто не оставлял запись к записи скачать торрент «Международная пилорама» с Тиграном Кеосаяном . Будь первым!

!Обратная связь