Half Girlfriend 2017 720p x264 Netflix DDS 5 1 DTOne ExClusive | Heartland - Paradies für Pferde | Memesis 10

Скачать через торрент Фантастические дни Замечательные дни бесплатно Аниме Все серии на русском torrent

Статистика раздачи
Размер:  11.94 GB   |    Зарегистрирован:  1 месяц 20 дней   |    .torrent скачан:  49 раз   |   
Раздают:  1  
   
загрузка...
 
Автор Сообщение

Galfimbul

avatar Galfimbul


Фантастические дни / Wonderful Days

Год выпуска: 2003
Страна: Южная Корея, США
Жанр: Фантастика, Боевик
Продолжительность: 1:35:06
Перевод 1: Авторский (одноголосый закадровый) Андрей Гаврилов;
Перевод 2: Авторский (одноголосый закадровый) Юрий Сербин;
Оригинальная аудиодорожка: корейская
Субтитры: русские, английские

Режиссер: Мун-саэнг Ким / Moon-saeng Kim

Описание: Будущее. Земля отравлена токсичными выбросами, залита ядовитыми отходами, изрыта вредоносными свалками. В защищенном городе Экобан элита живет в достатке и безопасности, в то время как обитатели окружающих земель медленно вымирают в нечеловеческих условиях. Когда появляется слух, что уровень загрязнения падает, власти Экобана усиливают выбросы, чтобы сохранить за городом статус земли обетованной.
На фоне вызванных этим решением беспорядков Шуа, один из жителей внешнего мира, прорывается в Экобан, чтобы отключить главный компьютер и остановить смертоносное загрязнение. Но неожиданно на его пути встает Джей, подруга детства. Теперь она занимает пост в городской охране и вынуждена разрываться между долгом служителя закона и верностью любимому человеку…

Качество: BDRip [poxitron]
Тип релиза: без хардсаба, без линковки
Формат видео: MKV
Видео: h264, 10 bit, 1920x1080, 23,976 fps, 14,2 Mbps
Аудио RUS №1 (int): AC3, 384 kbps, 5.1, 48 kHz | Авторский (одноголосый закадровый) Андрей Гаврилов;
Аудио RUS №2 (int): AC3, 384 kbps, 5.1, 48 kHz | Авторский (одноголосый закадровый) Юрий Сербин;
Аудио KOR №3 (int): FLAC, 2982 kbps, 24 bit, 5.1, 48 kHz | Оригинальная корейская озвучка.
Субтитры: русские (srt, встроенные), английские (srt, встроенные)

Скачать: SAMPLE 123.40MB

Доп. информация: Данный релиз, это режиссерская версия (на 10 минут длиннее), которая выходила только в Корее (blu-ray вышел в 2013 году).
Дороги с Гавриловым и Сербиным были взяты отсюда, несмотря на то что они с одного диска, рассинхрон у них разный, не знаю как там на DVD, но, чтобы подогнать обе дороги под bdrip (той же продолжительности) пришлось изрядно повозиться.
Формат : Matroska
Версия формата : Version 4 / Version 2
Размер файла : 11,9 Гбайт
Продолжительность : 1 ч. 35 м.
Режим общего битрейта : Переменный
Общий поток : 18,0 Мбит/сек
Дата кодирования : UTC 2018-05-26 16:27:54
Программа кодирования : mkvmerge v8.3.0 ('Over the Horizon') 64bit
Библиотека кодирования : libebml v1.3.1 + libmatroska v1.4.2

Видео
Идентификатор : 1
Формат : AVC
Формат/Информация : Advanced Video Codec
Профиль формата : High [email protected]
Настройки формата : CABAC / 8 Ref Frames
Параметр CABAC формата : Да
Параметр RefFrames формата : 8 кадров
Идентификатор кодека : V_MPEG4/ISO/AVC
Продолжительность : 1 ч. 35 м.
Битрейт : 14,2 Мбит/сек
Ширина : 1920 пикселей
Высота : 1080 пикселей
Соотношение сторон : 16:9
Режим частоты кадров : Постоянный
Частота кадров : 23,976 (24000/1001) кадра/сек
Цветовое пространство : YUV
Субдискретизация насыщенности : 4:2:0
Битовая глубина : 10 бит
Тип развёртки : Прогрессивная
Бит/(Пиксели*Кадры) : 0.286
Размер потока : 9,45 Гбайт (79%)
Библиотека кодирования : x264 core 148 r2705M 3f5ed56
Настройки программы : cabac=1 / ref=8 / deblock=1:0:0 / analyse=0x3:0x133 / me=tesa / subme=10 / psy=1 / fade_compensate=0.00 / psy_rd=1.00:0.00 / mixed_ref=1 / me_range=32 / chroma_me=1 / trellis=2 / 8x8dct=1 / cqm=0 / deadzone=21,11 / fast_pskip=0 / chroma_qp_offset=-2 / threads=34 / lookahead_threads=2 / sliced_threads=0 / nr=0 / decimate=0 / interlaced=0 / bluray_compat=0 / constrained_intra=0 / fgo=0 / bframes=3 / b_pyramid=2 / b_adapt=2 / b_bias=0 / direct=3 / weightb=1 / open_gop=0 / weightp=2 / keyint=250 / keyint_min=23 / scenecut=40 / intra_refresh=0 / rc_lookahead=60 / rc=crf / mbtree=1 / crf=15.0000 / qcomp=0.80 / qpmin=10 / qpmax=50 / qpstep=4 / ip_ratio=1.40 / aq=3:1.00
Язык : Korean
Default : Да
Forced : Нет
Цветовой диапазон : Limited
Основные цвета : BT.709
Характеристики трансфера : BT.709
Коэффициенты матрицы : BT.709

Аудио #1
Идентификатор : 2
Формат : AC-3
Формат/Информация : Audio Coding 3
Идентификатор кодека : A_AC3
Продолжительность : 1 ч. 34 м.
Вид битрейта : Постоянный
Битрейт : 384 Кбит/сек
Каналы : 6 каналов
Расположение каналов : Front: L C R, Side: L R, LFE
Частота : 48,0 КГц
Частота кадров : 31,250 кадров/сек (1536 SPF)
Битовая глубина : 16 бит
Метод сжатия : С потерями
Размер потока : 261 Мбайт (2%)
Заголовок : Андрей Гаврилов
Язык : Russian
ServiceKind/String : Complete Main
Default : Да
Forced : Нет

Аудио #2
Идентификатор : 3
Формат : AC-3
Формат/Информация : Audio Coding 3
Идентификатор кодека : A_AC3
Продолжительность : 1 ч. 34 м.
Вид битрейта : Постоянный
Битрейт : 384 Кбит/сек
Каналы : 6 каналов
Расположение каналов : Front: L C R, Side: L R, LFE
Частота : 48,0 КГц
Частота кадров : 31,250 кадров/сек (1536 SPF)
Битовая глубина : 16 бит
Метод сжатия : С потерями
Размер потока : 261 Мбайт (2%)
Заголовок : Юрий Сербин
Язык : Russian
ServiceKind/String : Complete Main
Default : Нет
Forced : Нет

Аудио #3
Идентификатор : 4
Формат : FLAC
Формат/Информация : Free Lossless Audio Codec
Идентификатор кодека : A_FLAC
Продолжительность : 1 ч. 34 м.
Вид битрейта : Переменный
Битрейт : 2982 Кбит/сек
Каналы : 6 каналов
Расположение каналов : Front: L C R, Side: L R, LFE
Частота : 48,0 КГц
Частота кадров : 11,719 кадров/сек (4096 SPF)
Битовая глубина : 24 бит
Размер потока : 1,98 Гбайт (17%)
Заголовок : Оригинальная дорожка
Библиотека кодирования : libFLAC 1.3.1 (UTC 2014-11-25)
Язык : Korean
Default : Нет
Forced : Нет

Текст #1
Идентификатор : 5
Формат : UTF-8
Идентификатор кодека : S_TEXT/UTF8
Идентификатор кодека/Информация : UTF-8 Plain Text
Продолжительность : 1 ч. 28 м.
Битрейт : 49 бит/сек
ElementCount : 512
Размер потока : 32,1 Кбайт (0%)
Язык : Russian
Default : Нет
Forced : Нет

Текст #2
Идентификатор : 6
Формат : UTF-8
Идентификатор кодека : S_TEXT/UTF8
Идентификатор кодека/Информация : UTF-8 Plain Text
Продолжительность : 1 ч. 28 м.
Битрейт : 26 бит/сек
ElementCount : 531
Размер потока : 16,9 Кбайт (0%)
Язык : English
Default : Нет
Forced : Нет

Меню
00:00:00.000 : ko:00:00:00.000
00:01:52.112 : ko:00:01:52.112
00:08:26.339 : ko:00:08:26.339
00:11:05.456 : ko:00:11:05.456
00:23:52.264 : ko:00:23:52.264
00:29:53.500 : ko:00:29:53.500
00:33:28.840 : ko:00:33:28.840
00:34:13.802 : ko:00:34:13.802
00:41:56.973 : ko:00:41:56.973
00:45:07.914 : ko:00:45:07.914
00:53:28.122 : ko:00:53:28.122
01:02:55.772 : ko:01:02:55.772
01:09:13.733 : ko:01:09:13.733
01:11:36.876 : ko:01:11:36.876
01:27:09.766 : ko:01:27:09.766
01:30:06.151 : ko:01:30:06.151
01:33:02.285 : es:01:33:02.285


Трекер:  [ 27-Май-2018 09:01 ]

  

Скачать .torrent

Размер .torrent файла 60 KB


Размер: 11.94 GB
Хэш (hash) релиза: 087d32aa44fb22ee5205178bb1835d1668a20b70
Подписка на обновления:

Еще никто не оставлял запись к записи скачать торрент Фантастические дни Замечательные дни . Будь первым!

!Обратная связь