Ozuna - El Farsante ( Audio Oficial ) | Odisea | Devilman Lady | A Wrinkle in Time

Скачать через торрент [VIDEO] Бегущий по лезвию 2049 Blade Runner 2049 бесплатно русская версия torrent активатор

Статистика раздачи
Размер:  2.68 GB   |    Зарегистрирован:  28 дней   |    .torrent скачан:  31 раз   |   
Раздают:  1  
   
загрузка...
 
Автор Сообщение

Galfimbul

avatar Galfimbul


Бегущий по лезвию 2049 / Blade Runner 2049


Год выпуска: 2017
Страна: США, Великобритания, Венгрия, Канада
Жанр: фантастика, триллер, драма
Продолжительность: 02:43:33
Перевод №1: русский Профессиональный (полное дублирование) Blu-Ray EUR
Перевод №2: украинский Профессиональный (полное дублирование) iTunes
Перевод №3: русский Одноголосый (закадровый) Д. Есарев
Перевод №4: русский Одноголосый (закадровый) Solod
Оригинальная дорожка: Есть
Субтитры: русские (форсированные, полные), украинские (полные), английские (полные)
Режиссер: Дени Вильнёв / Denis Villeneuve
В ролях: Райан Гослинг, Харрисон Форд, Джаред Лето, Ана де Армас, Сильвия Хукс, Робин Райт, Маккензи Дэвис, Карла Юри, Ленни Джеймс, Дэйв Батиста и другие .
Описание: В недалеком будущем мир населен людьми и репликантами, созданными выполнять самую тяжелую работу. Работа офицера полиции Кей — держать репликантов под контролем в условиях нарастающего напряжения… Пока он случайно не становится обладателем секретной информации, которая ставит под угрозу существование всего человечества. Желая найти ключ к разгадке, Кей решает разыскать Рика Декарда, бывшего офицера специального подразделения полиции Лос-Анджелеса, который бесследно исчез много лет назад .
Релиз группы

Качество: BDRip / рип с Blu-ray disc 1080p [EUR]
Формат: MP4
Видео кодек: H.264
Аудио кодек: AAC
Видео: 1280x532 AR:2.41 1740 kbps 23.976 fps
Аудио №1: [Russian] 2ch 48 kHz 128 kbps - [Dub] Профессиональный (полное дублирование) Blu-Ray EUR
Аудио №2: [Ukrainian] 2ch 48 kHz 128 kbps - [Dub] Профессиональный (полное дублирование) iTunes
Аудио №3: [Russian] 2ch 48 kHz 128 kbps - [VO] Одноголосый (закадровый) Д. Есарев
Аудио №4: [Russian] 2ch 48 kHz 128 kbps - [VO] Одноголосый (закадровый) Solod
Аудио №5: [English] 2ch 48 kHz 128 kbps - Original
avs [info]: 1280x532p 1:1 @ 24000/1001 fps (cfr)
x264 [info]: using SAR=1/1
x264 [info]: using cpu capabilities: MMX2 SSE2Fast SSSE3 SSE4.2 AVX FMA3 BMI2 AVX2
x264 [info]: profile High, level 4.1

x264 [info]: frame I:1604 Avg QP:12.64 size: 76962
x264 [info]: frame P:48786 Avg QP:15.95 size: 19396
x264 [info]: frame B:184762 Avg QP:18.02 size: 5493
x264 [info]: consecutive B-frames: 1.7% 2.1% 3.6% 33.5% 11.2% 20.4% 5.8% 18.8% 1.6% 0.8% 0.5%
x264 [info]: mb I I16..4: 8.4% 68.8% 22.8%
x264 [info]: mb P I16..4: 0.7% 4.0% 0.9% P16..4: 36.6% 40.3% 11.0% 0.0% 0.0% skip: 6.6%
x264 [info]: mb B I16..4: 0.0% 0.4% 0.1% B16..8: 36.3% 15.8% 1.8% direct: 2.5% skip:43.1% L0:46.2% L1:47.2% BI: 6.6%
x264 [info]: 8x8 transform intra:71.1% inter:56.2%
x264 [info]: direct mvs spatial:97.8% temporal:2.2%
x264 [info]: coded y,uvDC,uvAC intra: 80.6% 72.5% 51.4% inter: 11.6% 9.6% 4.4%
x264 [info]: i16 v,h,dc,p: 15% 16% 5% 64%
x264 [info]: i8 v,h,dc,ddl,ddr,vr,hd,vl,hu: 11% 8% 6% 10% 13% 12% 14% 12% 14%
x264 [info]: i4 v,h,dc,ddl,ddr,vr,hd,vl,hu: 27% 7% 7% 9% 12% 10% 10% 8% 10%
x264 [info]: i8c dc,h,v,p: 32% 34% 20% 15%
x264 [info]: Weighted P-Frames: Y:8.1% UV:5.0%
x264 [info]: ref P L0: 45.3% 4.6% 16.9% 9.0% 6.3% 5.5% 4.5% 3.1% 2.4% 2.3% 0.2% 0.0%
x264 [info]: ref B L0: 68.0% 12.4% 6.9% 3.9% 2.9% 2.3% 2.0% 1.1% 0.4%
x264 [info]: ref B L1: 92.5% 7.5%
x264 [info]: kb/s:1700.33

encoded 235152 frames, 11.42 fps, 1700.33 kb/s
ОбщееПолное имя : D:\Torrents\Blade Runner 2049.2017.BDRip.x264.1280x.rip by Frost O.S.mp4Формат : MPEG-4Профиль формата : Base MediaИдентификатор кодека : isom (isom)Размер файла : 2,68 ГбайтПродолжительность : 2 ч. 43 м.Режим общего битрейта : ПеременныйОбщий поток : 2350 Кбит/секДата кодирования : UTC 2018-05-26 20:27:36Дата пометки : UTC 2018-05-26 20:27:36Программа кодирования : My MP4Box GUI 0.6.0.6

ВидеоИдентификатор : 1Формат : AVCФормат/Информация : Advanced Video CodecПрофиль формата : [email protected]Настройки формата : CABAC / 10 Ref FramesПараметр CABAC формата : ДаПараметр RefFrames формата : 10 кадровИдентификатор кодека : avc1Идентификатор кодека/Информация : Advanced Video CodingПродолжительность : 2 ч. 43 м.Битрейт : 1700 Кбит/секМаксимальный битрейт : 10,3 Мбит/секШирина : 1280 пикселейВысота : 532 пикселяСоотношение сторон : 2,40:1Режим частоты кадров : ПостоянныйЧастота кадров : 23,976 (24000/1001) кадра/секЦветовое пространство : YUVСубдискретизация насыщенности : 4:2:0Битовая глубина : 8 битТип развёртки : ПрогрессивнаяБит/(Пиксели*Кадры) : 0.104Размер потока : 1,94 Гбайт (72%)Заголовок : Blade Runner 2049.2017.BDRip.x264.1280x.rip by Frost O.SБиблиотека кодирования : x264 core 152 r2851 ba24899Настройки программы : cabac=1 / ref=10 / deblock=1:-3:-3 / analyse=0x3:0x113 / me=umh / subme=11 / psy=1 / psy_rd=0.95:0.00 / mixed_ref=1 / me_range=32 / chroma_me=1 / trellis=2 / 8x8dct=1 / cqm=0 / deadzone=21,11 / fast_pskip=0 / chroma_qp_offset=-2 / threads=6 / lookahead_threads=1 / sliced_threads=0 / nr=0 / decimate=0 / interlaced=0 / bluray_compat=0 / constrained_intra=0 / bframes=10 / b_pyramid=2 / b_adapt=2 / b_bias=0 / direct=3 / weightb=1 / open_gop=0 / weightp=2 / keyint=250 / keyint_min=23 / scenecut=40 / intra_refresh=0 / rc=2pass / mbtree=0 / bitrate=1700 / ratetol=1.0 / qcomp=0.70 / qpmin=0 / qpmax=69 / qpstep=4 / cplxblur=20.0 / qblur=0.5 / ip_ratio=1.40 / pb_ratio=1.30 / aq=2:0.70Дата кодирования : UTC 2018-05-26 11:42:31Дата пометки : UTC 2018-05-26 20:29:04Цветовой диапазон : LimitedОсновные цвета : BT.709Характеристики трансфера : BT.709Коэффициенты матрицы : BT.709

Аудио #1Идентификатор : 2Формат : AACФормат/Информация : Advanced Audio CodecПрофиль формата : LCИдентификатор кодека : mp4a-40-2Продолжительность : 2 ч. 43 м.Вид битрейта : ПеременныйБитрейт : 128 Кбит/секМаксимальный битрейт : 136 Кбит/секКаналы : 2 каналаРасположение каналов : Front: L RЧастота : 48,0 КГцЧастота кадров : 46,875 кадров/сек (1024 SPF)Метод сжатия : С потерямиРазмер потока : 150 Мбайт (5%)Заголовок : Russian / Du, Blu-Ray EURДата кодирования : UTC 2018-05-26 20:28:39Дата пометки : UTC 2018-05-26 20:29:04

Аудио #2Идентификатор : 3Формат : AACФормат/Информация : Advanced Audio CodecПрофиль формата : LCИдентификатор кодека : mp4a-40-2Продолжительность : 2 ч. 43 м.Вид битрейта : ПеременныйБитрейт : 128 Кбит/секМаксимальный битрейт : 135 Кбит/секКаналы : 2 каналаРасположение каналов : Front: L RЧастота : 48,0 КГцЧастота кадров : 46,875 кадров/сек (1024 SPF)Метод сжатия : С потерямиРазмер потока : 150 Мбайт (5%)Заголовок : Ukrainian / Dub, iTunesДата кодирования : UTC 2018-05-26 20:28:46Дата пометки : UTC 2018-05-26 20:29:04

Аудио #3Идентификатор : 4Формат : AACФормат/Информация : Advanced Audio CodecПрофиль формата : LCИдентификатор кодека : mp4a-40-2Продолжительность : 2 ч. 43 м.Вид битрейта : ПеременныйБитрейт : 128 Кбит/секМаксимальный битрейт : 141 Кбит/секКаналы : 2 каналаРасположение каналов : Front: L RЧастота : 48,0 КГцЧастота кадров : 46,875 кадров/сек (1024 SPF)Метод сжатия : С потерямиРазмер потока : 150 Мбайт (5%)Заголовок : Russian / VO, EsarevДата кодирования : UTC 2018-05-26 20:28:50Дата пометки : UTC 2018-05-26 20:29:04

Аудио #4Идентификатор : 5Формат : AACФормат/Информация : Advanced Audio CodecПрофиль формата : LCИдентификатор кодека : mp4a-40-2Продолжительность : 2 ч. 43 м.Вид битрейта : ПеременныйБитрейт : 128 Кбит/секМаксимальный битрейт : 136 Кбит/секКаналы : 2 каналаРасположение каналов : Front: L RЧастота : 48,0 КГцЧастота кадров : 46,875 кадров/сек (1024 SPF)Метод сжатия : С потерямиРазмер потока : 150 Мбайт (5%)Заголовок : Russian / VO, SolodДата кодирования : UTC 2018-05-26 20:28:54Дата пометки : UTC 2018-05-26 20:29:04

Аудио #5Идентификатор : 6Формат : AACФормат/Информация : Advanced Audio CodecПрофиль формата : LCИдентификатор кодека : mp4a-40-2Продолжительность : 2 ч. 43 м.Вид битрейта : ПеременныйБитрейт : 128 Кбит/секМаксимальный битрейт : 136 Кбит/секКаналы : 2 каналаРасположение каналов : Front: L RЧастота : 48,0 КГцЧастота кадров : 46,875 кадров/сек (1024 SPF)Метод сжатия : С потерямиРазмер потока : 150 Мбайт (5%)Заголовок : English / OriginalДата кодирования : UTC 2018-05-26 20:28:58Дата пометки : UTC 2018-05-26 20:29:04

Текст #1Идентификатор : 7Формат : Timed TextИдентификатор кодека : tx3gПродолжительность : 2 ч. 33 м.Вид битрейта : ПеременныйБитрейт : 2 бит/секРазмер потока : 1,72 Кбайт (0%)Заголовок : Russian / ForcedForced : НетДата кодирования : UTC 2018-05-26 20:29:04Дата пометки : UTC 2018-05-26 20:29:04

Текст #2Идентификатор : 8Формат : Timed TextИдентификатор кодека : tx3gПродолжительность : 2 ч. 42 м.Вид битрейта : ПеременныйБитрейт : 45 бит/секРазмер потока : 53,3 Кбайт (0%)Заголовок : Russian / FullForced : НетДата кодирования : UTC 2018-05-26 20:29:04Дата пометки : UTC 2018-05-26 20:29:04

Текст #3Идентификатор : 9Формат : Timed TextИдентификатор кодека : tx3gПродолжительность : 2 ч. 43 м.Вид битрейта : ПеременныйБитрейт : 44 бит/секРазмер потока : 52,3 Кбайт (0%)Заголовок : Ukrainian / FullForced : НетДата кодирования : UTC 2018-05-26 20:29:04Дата пометки : UTC 2018-05-26 20:29:04

Текст #4Идентификатор : 10Формат : Timed TextИдентификатор кодека : tx3gПродолжительность : 2 ч. 32 м.Вид битрейта : ПеременныйБитрейт : 27 бит/секРазмер потока : 30,2 Кбайт (0%)Заголовок : English / FullForced : НетДата кодирования : UTC 2018-05-26 20:29:04Дата пометки : UTC 2018-05-26 20:29:04


Трекер:  [ 27-Май-2018 08:06 ]

  

Скачать .torrent

Размер .torrent файла 14 KB


Размер: 2.68 GB
Хэш (hash) релиза: 06f4dbbf3dcc976614f87a2678665eda84b0e92a

Еще никто не оставлял запись к записи скачать торрент [VIDEO] Бегущий по лезвию 2049 Blade Runner 2049 . Будь первым!

!Обратная связь