TV Shows | TV Shows | TV Shows

Скачать через торрент [VIDEO] Бегущий по лезвию 2049 Blade Runner 2049 бесплатно русская версия torrent активатор

Статистика раздачи
Размер:  1.89 GB   |    Зарегистрирован:  28 дней   |    .torrent скачан:  29 раз   |   
Раздают:  1  
   
загрузка...
 
Автор Сообщение

Galfimbul

avatar Galfimbul


Бегущий по лезвию 2049 / Blade Runner 2049


Год выпуска: 2017
Страна: США, Великобритания, Венгрия, Канада
Жанр: фантастика, триллер, драма
Продолжительность: 01:43:33
Перевод №1: русский Профессиональный (полное дублирование) Blu-Ray EUR
Перевод №2: украинский Профессиональный (полное дублирование) iTunes
Перевод №3: русский Одноголосый (закадровый) Д. Есарев
Перевод №4: русский Одноголосый (закадровый) Solod
Оригинальная дорожка: Есть
Субтитры: русские (форсированные, полные), украинские (полные), английские (полные)
Режиссер: Дени Вильнёв / Denis Villeneuve
В ролях: Райан Гослинг, Харрисон Форд, Джаред Лето, Ана де Армас, Сильвия Хукс, Робин Райт, Маккензи Дэвис, Карла Юри, Ленни Джеймс, Дэйв Батиста и другие .
Описание: В недалеком будущем мир населен людьми и репликантами, созданными выполнять самую тяжелую работу. Работа офицера полиции Кей — держать репликантов под контролем в условиях нарастающего напряжения… Пока он случайно не становится обладателем секретной информации, которая ставит под угрозу существование всего человечества. Желая найти ключ к разгадке, Кей решает разыскать Рика Декарда, бывшего офицера специального подразделения полиции Лос-Анджелеса, который бесследно исчез много лет назад .
Релиз группы

Качество: BDRip / рип с Blu-ray disc 1080p [EUR]
Формат: MP4
Видео кодек: H.264
Аудио кодек: AAC
Видео: 960x400 AR:2.40 1000 kbps 23.976 fps
Аудио №1: [Russian] 2ch 48 kHz 128 kbps - [Dub] Профессиональный (полное дублирование) Blu-Ray EUR
Аудио №2: [Ukrainian] 2ch 48 kHz 128 kbps - [Dub] Профессиональный (полное дублирование) iTunes
Аудио №3: [Russian] 2ch 48 kHz 128 kbps - [VO] Одноголосый (закадровый) Д. Есарев
Аудио №4: [Russian] 2ch 48 kHz 128 kbps - [VO] Одноголосый (закадровый) Solod
Аудио №5: [English] 2ch 48 kHz 128 kbps - Original
avs [info]: 960x400p 1:1 @ 24000/1001 fps (cfr)
x264 [info]: using SAR=1/1
x264 [info]: using cpu capabilities: MMX2 SSE2Fast SSSE3 SSE4.2 AVX FMA3 BMI2 AVX2
x264 [info]: profile High, level 4.1

x264 [info]: frame I:1665 Avg QP:12.14 size: 47828
x264 [info]: frame P:47104 Avg QP:15.61 size: 11764
x264 [info]: frame B:186383 Avg QP:17.62 size: 3178
x264 [info]: consecutive B-frames: 1.6% 1.5% 5.7% 25.9% 12.4% 22.4% 6.4% 19.2% 2.6% 1.4% 1.0%
x264 [info]: mb I I16..4: 8.7% 65.1% 26.2%
x264 [info]: mb P I16..4: 0.8% 4.6% 0.8% P16..4: 34.8% 37.2% 11.6% 0.0% 0.0% skip:10.2%
x264 [info]: mb B I16..4: 0.1% 0.4% 0.0% B16..8: 32.4% 15.0% 2.1% direct: 2.8% skip:47.2% L0:45.0% L1:46.0% BI: 9.0%
x264 [info]: 8x8 transform intra:72.7% inter:50.9%
x264 [info]: direct mvs spatial:97.0% temporal:3.0%
x264 [info]: coded y,uvDC,uvAC intra: 82.1% 73.6% 54.6% inter: 11.6% 9.5% 5.1%
x264 [info]: i16 v,h,dc,p: 18% 14% 7% 61%
x264 [info]: i8 v,h,dc,ddl,ddr,vr,hd,vl,hu: 9% 9% 6% 10% 13% 12% 13% 12% 15%
x264 [info]: i4 v,h,dc,ddl,ddr,vr,hd,vl,hu: 10% 10% 7% 10% 14% 12% 12% 10% 14%
x264 [info]: i8c dc,h,v,p: 35% 33% 18% 14%
x264 [info]: Weighted P-Frames: Y:8.2% UV:4.8%
x264 [info]: ref P L0: 49.1% 4.9% 17.5% 8.4% 6.3% 5.7% 4.7% 3.1% 0.3% 0.0%
x264 [info]: ref B L0: 68.7% 13.6% 7.7% 3.8% 3.1% 2.2% 0.9%
x264 [info]: ref B L1: 92.3% 7.7%
x264 [info]: kb/s:1000.15

encoded 235152 frames, 21.77 fps, 1000.15 kb/s
ОбщееПолное имя : D:\Torrents\Blade Runner 2049.2017.BDRip.x264.960x.rip by Frost O.S.mp4Формат : MPEG-4Профиль формата : Base MediaИдентификатор кодека : isom (isom)Размер файла : 1,89 ГбайтПродолжительность : 2 ч. 43 м.Режим общего битрейта : ПеременныйОбщий поток : 1650 Кбит/секДата кодирования : UTC 2018-05-26 20:51:05Дата пометки : UTC 2018-05-26 20:51:05Программа кодирования : My MP4Box GUI 0.6.0.6

ВидеоИдентификатор : 1Формат : AVCФормат/Информация : Advanced Video CodecПрофиль формата : [email protected]Настройки формата : CABAC / 8 Ref FramesПараметр CABAC формата : ДаПараметр RefFrames формата : 8 кадровИдентификатор кодека : avc1Идентификатор кодека/Информация : Advanced Video CodingПродолжительность : 2 ч. 43 м.Битрейт : 1000 Кбит/секМаксимальный битрейт : 6880 Кбит/секШирина : 960 пикселейВысота : 400 пикселейСоотношение сторон : 2,40:1Режим частоты кадров : ПостоянныйЧастота кадров : 23,976 (24000/1001) кадра/секЦветовое пространство : YUVСубдискретизация насыщенности : 4:2:0Битовая глубина : 8 битТип развёртки : ПрогрессивнаяБит/(Пиксели*Кадры) : 0.109Размер потока : 1,14 Гбайт (61%)Заголовок : Blade Runner 2049.2017.BDRip.x264.960x.rip by Frost O.SБиблиотека кодирования : x264 core 152 r2851 ba24899Настройки программы : cabac=1 / ref=8 / deblock=1:-3:-3 / analyse=0x3:0x113 / me=umh / subme=11 / psy=1 / psy_rd=0.90:0.00 / mixed_ref=1 / me_range=32 / chroma_me=1 / trellis=2 / 8x8dct=1 / cqm=0 / deadzone=21,11 / fast_pskip=0 / chroma_qp_offset=-2 / threads=6 / lookahead_threads=1 / sliced_threads=0 / nr=0 / decimate=0 / interlaced=0 / bluray_compat=0 / constrained_intra=0 / bframes=10 / b_pyramid=2 / b_adapt=2 / b_bias=0 / direct=3 / weightb=1 / open_gop=0 / weightp=2 / keyint=250 / keyint_min=23 / scenecut=40 / intra_refresh=0 / rc=2pass / mbtree=0 / bitrate=1000 / ratetol=1.0 / qcomp=0.70 / qpmin=0 / qpmax=69 / qpstep=4 / cplxblur=20.0 / qblur=0.5 / ip_ratio=1.40 / pb_ratio=1.30 / aq=2:0.80Дата кодирования : UTC 2018-05-26 16:33:49Дата пометки : UTC 2018-05-26 20:51:56Цветовой диапазон : LimitedОсновные цвета : BT.709Характеристики трансфера : BT.709Коэффициенты матрицы : BT.709

Аудио #1Идентификатор : 2Формат : AACФормат/Информация : Advanced Audio CodecПрофиль формата : LCИдентификатор кодека : mp4a-40-2Продолжительность : 2 ч. 43 м.Вид битрейта : ПеременныйБитрейт : 128 Кбит/секМаксимальный битрейт : 136 Кбит/секКаналы : 2 каналаРасположение каналов : Front: L RЧастота : 48,0 КГцЧастота кадров : 46,875 кадров/сек (1024 SPF)Метод сжатия : С потерямиРазмер потока : 150 Мбайт (8%)Заголовок : Russian / Dub, Blu-Ray EURДата кодирования : UTC 2018-05-26 20:51:35Дата пометки : UTC 2018-05-26 20:51:56

Аудио #2Идентификатор : 3Формат : AACФормат/Информация : Advanced Audio CodecПрофиль формата : LCИдентификатор кодека : mp4a-40-2Продолжительность : 2 ч. 43 м.Вид битрейта : ПеременныйБитрейт : 128 Кбит/секМаксимальный битрейт : 135 Кбит/секКаналы : 2 каналаРасположение каналов : Front: L RЧастота : 48,0 КГцЧастота кадров : 46,875 кадров/сек (1024 SPF)Метод сжатия : С потерямиРазмер потока : 150 Мбайт (8%)Заголовок : Ukrainian / Dub, iTunesДата кодирования : UTC 2018-05-26 20:51:40Дата пометки : UTC 2018-05-26 20:51:56

Аудио #3Идентификатор : 4Формат : AACФормат/Информация : Advanced Audio CodecПрофиль формата : LCИдентификатор кодека : mp4a-40-2Продолжительность : 2 ч. 43 м.Вид битрейта : ПеременныйБитрейт : 128 Кбит/секМаксимальный битрейт : 141 Кбит/секКаналы : 2 каналаРасположение каналов : Front: L RЧастота : 48,0 КГцЧастота кадров : 46,875 кадров/сек (1024 SPF)Метод сжатия : С потерямиРазмер потока : 150 Мбайт (8%)Заголовок : Russian / VO, EsarevДата кодирования : UTC 2018-05-26 20:51:44Дата пометки : UTC 2018-05-26 20:51:56

Аудио #4Идентификатор : 5Формат : AACФормат/Информация : Advanced Audio CodecПрофиль формата : LCИдентификатор кодека : mp4a-40-2Продолжительность : 2 ч. 43 м.Вид битрейта : ПеременныйБитрейт : 128 Кбит/секМаксимальный битрейт : 136 Кбит/секКаналы : 2 каналаРасположение каналов : Front: L RЧастота : 48,0 КГцЧастота кадров : 46,875 кадров/сек (1024 SPF)Метод сжатия : С потерямиРазмер потока : 150 Мбайт (8%)Заголовок : Russian / VO, SolodДата кодирования : UTC 2018-05-26 20:51:48Дата пометки : UTC 2018-05-26 20:51:56

Аудио #5Идентификатор : 6Формат : AACФормат/Информация : Advanced Audio CodecПрофиль формата : LCИдентификатор кодека : mp4a-40-2Продолжительность : 2 ч. 43 м.Вид битрейта : ПеременныйБитрейт : 128 Кбит/секМаксимальный битрейт : 136 Кбит/секКаналы : 2 каналаРасположение каналов : Front: L RЧастота : 48,0 КГцЧастота кадров : 46,875 кадров/сек (1024 SPF)Метод сжатия : С потерямиРазмер потока : 150 Мбайт (8%)Заголовок : English / OriginalДата кодирования : UTC 2018-05-26 20:51:52Дата пометки : UTC 2018-05-26 20:51:56

Текст #1Идентификатор : 7Формат : Timed TextИдентификатор кодека : tx3gПродолжительность : 2 ч. 33 м.Вид битрейта : ПеременныйБитрейт : 2 бит/секРазмер потока : 1,72 Кбайт (0%)Заголовок : Russian / ForcedForced : НетДата кодирования : UTC 2018-05-26 20:51:55Дата пометки : UTC 2018-05-26 20:51:56

Текст #2Идентификатор : 8Формат : Timed TextИдентификатор кодека : tx3gПродолжительность : 2 ч. 42 м.Вид битрейта : ПеременныйБитрейт : 45 бит/секРазмер потока : 53,3 Кбайт (0%)Заголовок : Russian / FullForced : НетДата кодирования : UTC 2018-05-26 20:51:56Дата пометки : UTC 2018-05-26 20:51:56

Текст #3Идентификатор : 9Формат : Timed TextИдентификатор кодека : tx3gПродолжительность : 2 ч. 43 м.Вид битрейта : ПеременныйБитрейт : 44 бит/секРазмер потока : 52,3 Кбайт (0%)Заголовок : Ukrainian / FullForced : НетДата кодирования : UTC 2018-05-26 20:51:56Дата пометки : UTC 2018-05-26 20:51:56

Текст #4Идентификатор : 10Формат : Timed TextИдентификатор кодека : tx3gПродолжительность : 2 ч. 32 м.Вид битрейта : ПеременныйБитрейт : 27 бит/секРазмер потока : 30,2 Кбайт (0%)Заголовок : English / FullForced : НетДата кодирования : UTC 2018-05-26 20:51:56Дата пометки : UTC 2018-05-26 20:51:56


Трекер:  [ 27-Май-2018 08:06 ]

  

Скачать .torrent

Размер .torrent файла 19 KB


Размер: 1.89 GB
Хэш (hash) релиза: a4c17d705355fc2d7ed58c1f9bf56d0c8e5e971e

Еще никто не оставлял запись к записи скачать торрент [VIDEO] Бегущий по лезвию 2049 Blade Runner 2049 . Будь первым!

!Обратная связь