The Real Housewives of New York City 10 | Jack and Jill 2011 720p BDRip x264 AC3-Zoo | Linzie Gray

Скачать через торрент [MULT] Щенячий патруль PAW Patrol бесплатно русская версия torrent активатор

Статистика раздачи
Размер:  4.55 GB   |    Зарегистрирован:  28 дней   |    .torrent скачан:  32 раза   |   
Раздают:  1  
   
загрузка...
 
Автор Сообщение

Galfimbul

avatar Galfimbul


Щенячий патруль
PAW Patrol

Год выпуска: 2014
Страна: США (Nickelodeon Animation Studios)
Жанр: Мультсериал, детский, семейный
Продолжительность: 24 х ~00:45:00 + 4 х ~00:23:00
Перевод: Профессиональный (полное дублирование) [SDI Media]
Оригинальная дорожка: Нет
Субтитры: Нет
Режиссер: Кейт Чепмэн / Keith Chapman
Роли озвучивали: Деван Коэн, Алекс Торн, Кристиан Дистефано, Каллан Холли, Гейдж Манро, Оуэн Мэйсон, Стюарт Ралстон, Тристан Сэмюэл, Дрю Дэвис, Max Calinescu
Описание: Зик Райдер — озорной десятилетний мальчик, талантливый не по годам. Он отлично разбирается в электронике и технике и умело с ней обращается. Его жизнь насыщена и полна бесстрашных приключений. Вместе с шестью веселыми и храбрыми щенятами он создал отважную команду под названием «Щенячий патруль».
Сообща они выполняют спасательные миссии: с удовольствием помогают одинокому котенку, попавшему в беду, или освобождают состав поезда из-под оползня. Любое дело им по плечу. Каждый из щенков команды обладает особым характером и уникальными способностями. Зик и его четвероногие товарищи делают немало благих дел и являются по-настоящему смелыми спасателями.

Все раздачи сериала
Качество: HDTVRip (Рип с HDTV 1080i)
Формат: MP4
Видео кодек: H.264
Аудио кодек: AAC
Видео: 960х540 (16:9), ~1000 Kbps (crf=19), 23.976 fps
Аудио: Русский, 2 ch, 48 kHz, 128 kbps [Dub, SDI Media]
s2e01. Pups Save the Penguins + Pups Save a Dolphin Pup
s2e02. Pups Save the Space Alien + Pups Save a Flying Frog
s2e03. Pups Save Jake + Pups Save the Parade
s2e04. Pups Save the Diving Bell + Pups Save the Beavers
s2e05. Pups Save a Ghost + Pups Save A Show
s2e06. The New Pup
s2e07. Pups' Jungle Trouble + Pups Save a Herd
s2e08. Pups and the Big Freeze + Pups Save a Basketball Game
s2e09. Pups Save an Ace + Pups Save a Wedding
s2e10.Pups Save a Talent Show + Pups Save the Corn Roast
s2e11a. Pups Leave Marshall Home Alone
s2e11b. Pups Save the Deer
s2e12. Pups Save the Parrot + Pups Save the Queen Bee
s2e13. Pups Save a Mer-Pup
s2e14. Pups Save an Elephant Family + Pups and the Mischievous Kittens
s2e15. Pups Save a Friend+Pups Save a Stowaway
s2e16. Pups Adventures In Babysitting + Pups Save the Fireworks
s2e17. Pups Save a Sniffle + Pups and the Ghost Cabin
s2e18. Pups Save an Adventure + Pups Save a Surprise
s2e19. Pup-Fu!
s2e20. Pups Save the Mayor's Race + Pups Save an Outlaw's Loot
s2e21. Pups Save Walinda + Pups Save a Big Bone
s2e22a. Pups Save a Floundering Francois
s2e22b. Pups Save the Pop-Up Penguins
s2e23. Pups Save a Snowboard Competition + Pups Save a Chicken of the Sea
s2e24. Pups Save a Pizza + Pups Save Skye
s2e25. Pups Save the Woof and Roll Show + Pups Save an Eagle
s2e26. Pups Bark with Dinosaurs
<div class="sp-wrap">
<div class="sp-head folded">Ep01</div>
<div class="sp-body">
<div class="sp-wrap">
<div class="sp-head folded">Log</div>
<div class="sp-body">x264 [info]: frame I:368 Avg QP:14.67 size: 49939
x264 [info]: frame P:10295 Avg QP:19.06 size: 9847
x264 [info]: frame B:21943 Avg QP:23.49 size: 2614

encoded 32606 frames, 7.84 fps, 1041.95 kb/s
General
Complete name : s2e01. Pups Save the Penguins + Pups Save a Dolphin Pup.HDTVRip.x264.960x(semen_52-TNC).mp4
Format : MPEG-4
Format profile : Base Media
Codec ID : isom
File size : 191 MiB
Duration : 22mn 40s
Overall bit rate mode : Variable
Overall bit rate : 1 178 Kbps
Season : 2
Part : 1
Part/Position : 2
Track name/Position : 1
ContentType : Short Film
Encoded date : UTC 2018-05-26 18:09:18
Tagged date : UTC 2018-05-26 18:09:28
Writing application : MkvToMp4 version: 0.224 (x64)
Comment : Rip by semen_52-TNC

Video
ID : 1
Format : AVC
Format/Info : Advanced Video Codec
Format profile : [email protected]
Format settings, CABAC : Yes
Format settings, ReFrames : 8 frames
Codec ID : avc1
Codec ID/Info : Advanced Video Coding
Duration : 22mn 39s
Bit rate : 1 042 Kbps
Maximum bit rate : 3 655 Kbps
Width : 960 pixels
Height : 540 pixels
Display aspect ratio : 16:9
Frame rate mode : Constant
Frame rate : 23.976 fps
Color space : YUV
Chroma subsampling : 4:2:0
Bit depth : 8 bits
Scan type : Progressive
Bits/(Pixel*Frame) : 0.084
Stream size : 169 MiB (88%)
Writing library : x264 core 130 r2273 b3065e6
Encoding settings : cabac=1 / ref=8 / deblock=1:1:1 / analyse=0x3:0x113 / me=esa / subme=9 / psy=1 / psy_rd=0.40:0.00 / mixed_ref=1 / me_range=32 / chroma_me=1 / trellis=2 / 8x8dct=1 / cqm=0 / deadzone=21,11 / fast_pskip=0 / chroma_qp_offset=-1 / threads=12 / lookahead_threads=2 / sliced_threads=0 / nr=0 / decimate=1 / interlaced=0 / bluray_compat=0 / constrained_intra=0 / bframes=8 / b_pyramid=2 / b_adapt=2 / b_bias=0 / direct=1 / weightb=1 / open_gop=0 / weightp=2 / keyint=250 / keyint_min=25 / scenecut=40 / intra_refresh=0 / rc_lookahead=60 / rc=crf / mbtree=1 / crf=19.0 / qcomp=0.60 / qpmin=0 / qpmax=69 / qpstep=4 / ip_ratio=1.40 / aq=1:0.60
Language : English
Encoded date : UTC 2018-05-26 18:09:18
Tagged date : UTC 2018-05-26 18:09:22

Audio
ID : 2
Format : AAC
Format/Info : Advanced Audio Codec
Format profile : LC
Codec ID : 40
Duration : 22mn 40s
Bit rate mode : Variable
Bit rate : 128 Kbps
Maximum bit rate : 145 Kbps
Channel(s) : 2 channels
Channel positions : Front: L R
Sampling rate : 48.0 KHz
Compression mode : Lossy
Stream size : 20.7 MiB (11%)
Language : Russian
Encoded date : UTC 2018-05-26 18:09:21
Tagged date : UTC 2018-05-26 18:09:22</div>
</div>
</div>
</div>
<div class="sp-wrap">
<div class="sp-head folded">Ep01</div>
<div class="sp-body">

</div>
</div>
Внимание! Раздача ведётся путём добавления новых серий; при каждом добавлении создётся новый торрент. Чтобы начать докачку новой серии, пользователям необходимо сделать следующее:
(1) остановить скачивание,
(2) удалить старый торрент у себя из клиента (старые серии удалять не надо),
(3) скачать новый торрент и запустить его у себя в клиенте вместо старого, при этом указать клиенту путь в старую папку куда и должно происходить скачивание новых серий.
Ваш клиент при этом должен произвести хеширование (проверку) старой папки (если не производит сам - помогите ему сделать это), и будет докачивать только те серии которых у вас ещё нет. Старые серии при этом не удаляются, а продолжают раздаваться!
Eсли вы уже удалили старые серии, то предотвратить повторную закачку старых серий можно, отжав галочку в соответсвующих местах при запуске нового торрента. По возможности, желательно не удалять старые серии как можно дольше чтобы релизёр не столько продолжал раздавать старые серии, а смог сконцентрироваться на новых
<div class="sp-wrap">
<div class="sp-head folded">02.06.2015</div>
<div class="sp-body">Добавлены серии 06a, 06b, 10a, 10b.
Статистика до обновления: Размер: 1.08 GB | Зарегистрирован: 17 дней | .torrent скачан: 399 раз
Добавлены серии 08a, 08b.
Статистика до обновления: Размер: 1.47 GB | Зарегистрирован: 13 дней | .torrent скачан: 480 раз
Добавлен полный сезон. Полная замена материала.
Статистика до обновления: Размер: 1.66 GB | Зарегистрирован: 2 года 11 месяцев | .torrent скачан: 14,996 раз
</div>
</div>

Трекер:  [ 27-Май-2018 06:36 ]

  

Скачать .torrent

Размер .torrent файла 26 KB


Размер: 4.55 GB
Хэш (hash) релиза: 9dc11e2ba4d919e1fa688b43aac949d30b46de25

Еще никто не оставлял запись к записи скачать торрент [MULT] Щенячий патруль PAW Patrol . Будь первым!

!Обратная связь