BD Love Live School Idol Project Season 2 Subtitle Indonesia | BD Love Live The School Idol Movie Subtitle Indonesia | BD Lucky Star + OVA Subtitle Indonesia

Скачать через торрент [iPad] Опасный бизнес Gringo бесплатно русская версия torrent активатор

Статистика раздачи
Размер:  2 GB   |    Зарегистрирован:  29 дней   |    .torrent скачан:  54 раза   |   
Раздают:  1  
   
загрузка...
 
Автор Сообщение

Galfimbul

avatar Galfimbul


Опасный бизнес / Gringo
«An American Corporation, The Mexican Cartel, Chances Are This Won't End Well»

6.474 / 10 6.00 / 10
Год выпуска: 2018
Страна: США
Жанр: Боевик, комедия, криминал
Продолжительность: 01:50:38

Перевод: Дублированный (iTunes)
Оригинальная аудиодорожка: Есть
Cубтитры: Английские
Режиссёр: Нэш Эдгертон
Сценарий: Мэтью Стоун, Энтони Тамбакис
Продюсер: А.Дж. Дикс, Нэш Эдгертон, Бет Коно
Оператор: Эдуард Грау
Композитор: Кристоф Бек
Художник: Патрис Верметт, Карлос Й. Хакес, Пол Д. Келли
Монтаж: Люк Дулан, Дэвид Ренни, Татьяна С. Ригел
В ролях: Джоэл Эдгертон, Шарлиз Терон, Дэвид Ойелоуо, Тэнди Ньютон, Башир Салахуддин, Гленн Кубота, Мелони Диас, Аманда Сайфред, Гарри Тредэвэй, Тео Таплитц

Сборы в США: $4 969 853
Сборы в мире: + $4 864 883 = $9 834 736
Сборы в России: $681 299

Мировая премьера: 8 марта 2018
Премьера (РФ): 19 апреля 2018, «Вольга»

Цифровой релиз: 24 мая 2018, «Вольга»

Описание: Дерзкая длинноногая блондинка — она идеально подходит для опасного бизнеса. Однажды одному из ее подчиненных становится известна уникальная формула, за которой гоняется весь мир. Он решает инсценировать собственное похищение и потребовать выкуп у компании. Лучше этому умнику не рассчитывать на помощь своей эффектной начальницы, ведь для корпорации он предпочтительнее мертвый, чем живой.
Качество исходника: WEB-DL 1080p (BlueBird)
Качество: WEB-DLRip
Тип: SD (576p)
Контейнер: M4V
Видео: H.264, 1024x432, 2.40:1, 2 200 Kbps, 23.976 fps

Аудио 1: Русский/Дублированный (iTunes), AAC / 2.0 / 128 Kbps / 48.0 KHz
Аудио 2: Английский/Оригинальная дорожка , AAC / 2.0 / 128 Kbps / 48.0 KHz
Аудио 3: Украинский/Дублированный (iTunes), AAC / 2.0 / 128 Kbps / 48.0 KHz

Субтитры: Английские полные
Sort Name: Gringo
XID: Apple:vendor_id:2018-958501
contentID: 1351890249
Copyright: © 2018 Universal Studios. All Rights Reserved.
Screenwriters: Мэтью Стоун, Энтони Тамбакис
Producers: А.Дж. Дикс, Нэш Эдгертон, Бет Коно
Director: Нэш Эдгертон
Cast: Джоэл Эдгертон, Шарлиз Терон, Дэвид Ойелоуо, Тэнди Ньютон, Башир Салахуддин, Гленн Кубота, Мелони Диас, Аманда Сайфред, Гарри Тредэвэй, Тео Таплитц
Studio: Amazon Studios
Rating: 5
Long Description: Дерзкая длинноногая блондинка - она идеально подходит для опасного бизнеса. Однажды одному из ее подчиненных становится известна уникальная формула, за которой гоняется весь мир. Он решает инсценировать собственное похищение и потребовать выкуп у компании. Лучше этому умнику не рассчитывать на помощь своей эффектной начальницы, ведь для корпорации он предпочтительнее мертвый, чем живой.
Description: Дерзкая длинноногая блондинка - она идеально подходит для опасного бизнеса. Однажды одному из ее подчиненных становится известна уникальная формула, за которой гоняется весь мир. Он решает инсценировать собственное похищение и потребовать выкуп у компании. Лучше этому умнику не рассчитывать на помощь своей эффектной начальницы, ведь для корпорации он предпочтительнее мертвый, чем живой.
Release Date: 2018-03-08T08:00:00Z
Genre: Comedy
Artist: Nash Edgerton
Name: Gringo
General
Complete name : /Users/imac/HandBrake/Gringo.(SD).(pk).m4v
Format : MPEG-4
Codec ID : M4V
File size : 2.00 GiB
Duration : 1h 50mn
Overall bit rate mode : Variable
Overall bit rate : 2 587 Kbps
Movie name : Gringo
Performer : Nash Edgerton
Director : Нэш Эдгертон
Actor : Джоэл Эдгертон / Шарлиз Терон / Дэвид Ойелоуо / Тэнди Ньютон / Башир Салахуддин / Гленн Кубота / Мелони Диас / Аманда Сайфред / Гарри Тредэвэй / Тео Таплитц
Screenplay by : Мэтью Стоун / Энтони Тамбакис
Producer : А.Дж. Дикс / Нэш Эдгертон / Бет Коно
Production studio : Amazon Studios
Genre : Comedy
ContentType : Short Film
Description : Дерзкая длинноногая блондинка - она идеально подходит для опасного бизнеса. Однажды одному из ее подчиненных становится известна уникальная формула, за которой гоняется весь мир. Он решает инсценировать собственное похищение и потребовать выкуп у компании. Лучше этому умнику не рассчитывать на помощь своей эффектной начальницы, ведь для корпорации он предпочтительнее мертвый, чем живой.
Recorded date : UTC 2018-03-08 08:00:00
Encoded date : UTC 2018-05-26 19:46:45
Tagged date : UTC 2018-05-26 19:47:44
Copyright : © 2018 Universal Studios. All Rights Reserved.
Cover : Yes
Rating : None
Title/Sort : Gringo
LongDescription : Дерзкая длинноногая блондинка - она идеально подходит для опасного бизнеса. Однажды одному из ее подчиненных становится известна уникальная формула, за которой гоняется весь мир. Он решает инсценировать собственное похищение и потребовать выкуп у компании. Лучше этому умнику не рассчитывать на помощь своей эффектной начальницы, ведь для корпорации он предпочтительнее мертвый, чем живой.
AppleStoreCatalogID : 1351890249
Vendor : Apple:vendor_id:2018-958501
ContentRating : mpaa|R|400|

Video #1
ID : 1
Format : AVC
Format/Info : Advanced Video Codec
Format profile : [email protected]
Format settings, CABAC : Yes
Format settings, ReFrames : 9 frames
Codec ID : avc1
Codec ID/Info : Advanced Video Coding
Duration : 1h 50mn
Source duration : 1h 50mn
Bit rate : 2 200 Kbps
Width : 1 024 pixels
Height : 432 pixels
Display aspect ratio : 2.40:1
Frame rate mode : Variable
Frame rate : 23.976 fps
Minimum frame rate : 23.974 fps
Maximum frame rate : 23.981 fps
Color space : YUV
Chroma subsampling : 4:2:0
Bit depth : 8 bits
Scan type : Progressive
Bits/(Pixel*Frame) : 0.207
Stream size : 1.70 GiB (85%)
Source stream size : 1.70 GiB (85%)
Title : Main Program
Writing library : x264 core 155 r2893 b00bcaf
Encoding settings : cabac=1 / ref=9 / deblock=1:0:0 / analyse=0x3:0x113 / me=umh / subme=9 / psy=1 / psy_rd=1.00:0.00 / mixed_ref=1 / me_range=32 / chroma_me=1 / trellis=1 / 8x8dct=1 / cqm=0 / deadzone=21,11 / fast_pskip=1 / chroma_qp_offset=-2 / threads=13 / lookahead_threads=1 / sliced_threads=0 / nr=0 / decimate=1 / interlaced=0 / bluray_compat=0 / constrained_intra=0 / bframes=6 / b_pyramid=2 / b_adapt=2 / b_bias=0 / direct=1 / weightb=1 / open_gop=0 / weightp=2 / keyint=240 / keyint_min=24 / scenecut=40 / intra_refresh=0 / rc_lookahead=40 / rc=2pass / mbtree=1 / bitrate=2200 / ratetol=1.0 / qcomp=0.60 / qpmin=0 / qpmax=69 / qpstep=4 / cplxblur=20.0 / qblur=0.5 / ip_ratio=1.40 / aq=1:1.00
Language : English
Encoded date : UTC 2018-05-26 19:46:45
Tagged date : UTC 2018-05-26 19:46:51
Color range : Limited
Color primaries : BT.709
Transfer characteristics : BT.709
Matrix coefficients : BT.709

Video #2
ID : 7
Format : JPEG
Codec ID : jpeg
Duration : 1h 50mn
Bit rate mode : Variable
Bit rate : 719 bps
Width : 640 pixels
Height : 270 pixels
Display aspect ratio : 2.40:1
Frame rate mode : Variable
Frame rate : 0.003 fps
Minimum frame rate : 0.002 fps
Maximum frame rate : 0.007 fps
Color space : YUV
Chroma subsampling : 4:2:0
Bit depth : 8 bits
Compression mode : Lossy
Bits/(Pixel*Frame) : 1.387
Stream size : 585 KiB (0%)
Title : Chapter Images
Language : English
Encoded date : UTC 2018-05-26 19:47:00
Tagged date : UTC 2018-05-26 19:47:00

Audio #1
ID : 2
Format : AAC
Format/Info : Advanced Audio Codec
Format profile : LC
Codec ID : 40
Duration : 1h 50mn
Source duration : 1h 50mn
Bit rate mode : Variable
Bit rate : 126 Kbps
Maximum bit rate : 207 Kbps
Channel(s) : 2 channels
Channel positions : Front: L R
Sampling rate : 48.0 KHz
Compression mode : Lossy
Stream size : 99.3 MiB (5%)
Source stream size : 99.3 MiB (5%)
Title : Russian Stereo
Language : Russian
Encoded date : UTC 2018-05-26 19:46:45
Tagged date : UTC 2018-05-26 19:46:55

Audio #2
ID : 3
Format : AAC
Format/Info : Advanced Audio Codec
Format profile : LC
Codec ID : 40
Duration : 1h 50mn
Source duration : 1h 50mn
Bit rate mode : Variable
Bit rate : 124 Kbps
Maximum bit rate : 208 Kbps
Channel(s) : 2 channels
Channel positions : Front: L R
Sampling rate : 48.0 KHz
Compression mode : Lossy
Stream size : 98.0 MiB (5%)
Source stream size : 98.0 MiB (5%)
Title : English Stereo
Language : English
Encoded date : UTC 2018-05-26 19:46:45
Tagged date : UTC 2018-05-26 19:46:55

Audio #3
ID : 4
Format : AAC
Format/Info : Advanced Audio Codec
Format profile : LC
Codec ID : 40
Duration : 1h 50mn
Source duration : 1h 50mn
Bit rate mode : Variable
Bit rate : 125 Kbps
Maximum bit rate : 206 Kbps
Channel(s) : 2 channels
Channel positions : Front: L R
Sampling rate : 48.0 KHz
Compression mode : Lossy
Stream size : 99.2 MiB (5%)
Source stream size : 99.2 MiB (5%)
Title : Ukrainian Stereo
Language : Ukrainian
Encoded date : UTC 2018-05-26 19:46:45
Tagged date : UTC 2018-05-26 19:46:55

Text
ID : 5
Format : Timed Text
Muxing mode : sbtl
Codec ID : tx3g
Duration : 1h 45mn
Bit rate mode : Variable
Bit rate : 75 bps
Stream size : 57.8 KiB (0%)
Title : English full
Language : English
Encoded date : UTC 2018-05-26 19:46:45
Tagged date : UTC 2018-05-26 19:46:45

Menu #1
00:00:00.000 : 1
00:02:30.025 : 2
00:08:38.059 : 3
00:14:50.639 : 4
00:19:44.307 : 5
00:26:12.445 : 6
00:30:00.798 : 7
00:34:13.926 : 8
00:42:00.851 : 9
00:49:15.952 : 10
00:57:13.554 : 11
01:02:58.190 : 12
01:09:41.801 : 13
01:16:22.201 : 14
01:20:39.374 : 15
01:25:55.106 : 16
01:29:15.473 : 17
01:33:47.953 : 18
01:39:07.772 : 19
01:43:29.909 : 20

Menu #2
ID : 6
Codec ID : text
Duration : 1h 50mn
Language : English
Encoded date : UTC 2018-05-26 19:46:55
Tagged date : UTC 2018-05-26 19:46:55
00:00:00.000 : 1
00:02:30.025 : 2
00:08:38.059 : 3
00:14:50.639 : 4
00:19:44.307 : 5
00:26:12.445 : 6
00:30:00.798 : 7
00:34:13.926 : 8
00:42:00.851 : 9
00:49:15.952 : 10
00:57:13.554 : 11
01:02:58.190 : 12
01:09:41.801 : 13
01:16:22.201 : 14
01:20:39.374 : 15
01:25:55.106 : 16
01:29:15.473 : 17
01:33:47.953 : 18
01:39:07.772 : 19
01:43:29.909 : 20
Bit rate mode : VBR
x264 [info]: frame I:1723  Avg QP:10.69  size: 71789
x264 [info]: frame P:41713 Avg QP:13.23  size: 23194
x264 [info]: frame B:115734 Avg QP:15.24  size:  6350
x264 [info]: consecutive B-frames:  2.4%  5.4%  5.0% 70.2%  6.6%  9.2%  1.3%
x264 [info]: mb I  I16..4:  7.3% 71.0% 21.7%
x264 [info]: mb P  I16..4:  0.8%  7.3%  1.8%  P16..4: 32.5% 31.8% 22.0%  0.0%  0.0%    skip: 3.7%
x264 [info]: mb B  I16..4:  0.1%  0.7%  0.2%  B16..8: 33.2% 14.9%  4.5%  direct: 5.6%  skip:40.8%  L0:42.5% L1:43.8% BI:13.7%
x264 [info]: 8x8 transform intra:72.7% inter:61.8%
x264 [info]: coded y,uvDC,uvAC intra: 91.3% 90.2% 77.5% inter: 30.3% 22.5% 4.9%
x264 [info]: i16 v,h,dc,p: 22% 14%  8% 55%
x264 [info]: i8 v,h,dc,ddl,ddr,vr,hd,vl,hu: 14% 11%  8%  9% 11% 12% 11% 12% 13%
x264 [info]: i4 v,h,dc,ddl,ddr,vr,hd,vl,hu: 12% 11%  3%  9% 14% 14% 13% 12% 13%
x264 [info]: i8c dc,h,v,p: 46% 23% 19% 12%
x264 [info]: Weighted P-Frames: Y:1.8% UV:0.7%
x264 [info]: ref P L0: 53.1%  7.4% 17.2%  6.7%  5.1%  3.6%  3.2%  1.8%  1.7%  0.1%  0.0%
x264 [info]: ref B L0: 74.3% 12.0%  5.7%  2.8%  2.0%  1.6%  1.0%  0.4%
x264 [info]: ref B L1: 95.3%  4.7%
x264 [info]: kb/s:2200.47

Релиз подготовлен для просмотра на Apple TV, iPad, iPhone, iPod Touch.
Для просмотра данного релиза на компьютере с ОС Windows рекомендуется использовать VLC media player

Трекер:  [ 26-Май-2018 23:06 ]

  

Скачать .torrent

Размер .torrent файла 40 KB


Размер: 2 GB
Хэш (hash) релиза: f294f0d6e81693c18a79497e634f7e18798bdfca

Еще никто не оставлял запись к записи скачать торрент [iPad] Опасный бизнес Gringo . Будь первым!

!Обратная связь