19 files | Merry Christmas!!!!! | 4x22 The Flash

Скачать через торрент Украденный портрет Uloupený obraz Фильм бесплатно в хорошем качестве torrent

Скачивайте на UnionPeer.org фильмы через торрент без регистрации. Новинки кино в хорошем качестве через торрент. На UnionPeer.org можно скачать через торрент фильмы 2014 и 2015 годов. Самые новые фильмы.

Скачать торрент Украденный портрет Uloupený obraz бесплатно через .torrent фильм мультфильм сериал

Статистика раздачи
Размер:  100 MB   |    Зарегистрирован:  29 дней   |    .torrent скачан:  17 раз   |   
Раздают:  1  
   
загрузка...
 
Автор Сообщение

Galfimbul

avatar Galfimbul


Украденный портрет / Uloupený obraz

Страна: Чехословакия
Жанр: мультфильм для взрослых
Продолжительность: 00:09:45
Год выпуска: 1976
Перевод: не требуется
Русские субтитры: нет

Режиссёр: Вацлав Бедржих / Václav Bedřich

Описание: Криминальная банда продолжает свою охоту на супружескую пару. На этот раз их главарь использует магический луч, превращающий девушку в сомнабулу...

Доп. информация: Предыдущие фильмы этой серии:
"Smrtící vůně" (1969) - ...5559087
"Utopená ponorka" (1971) - ...5560760
"Poklad v pyramidě" (1973) - ...5563771

Качество: TVRip
Формат: AVI
Видео: 1298 kbps, 720х544 (4:3), 25.000 fps, MPEG-4 Visual (XviD)
Аудио: 128 kbps, 48.0 kHz, 2 channels, MPRG Audio (MP3)
Субтитры: отсутствуют
GeneralComplete name : Uloupeny obraz (1976).aviFormat : AVIFormat/Info : Audio Video InterleaveFile size : 100 MiBDuration : 9mn 45sOverall bit rate : 1 433 KbpsWriting application : VirtualDubMod 1.5.4.1 (build 2178/release)Writing library : VirtualDubMod build 2178/release

VideoID : 0Format : MPEG-4 VisualFormat profile : Advanced [email protected] settings, BVOP : 1Format settings, QPel : NoFormat settings, GMC : No warppointsFormat settings, Matrix : CustomCodec ID : XVIDCodec ID/Hint : XviDDuration : 9mn 45sBit rate : 1 298 KbpsWidth : 720 pixelsHeight : 544 pixelsDisplay aspect ratio : 4:3Frame rate : 25.000 fpsColor space : YUVChroma subsampling : 4:2:0Bit depth : 8 bitsScan type : ProgressiveCompression mode : LossyBits/(Pixel*Frame) : 0.133Stream size : 90.6 MiB (91%)Writing library : XviD 64

AudioID : 1Format : MPEG AudioFormat version : Version 1Format profile : Layer 3Mode : Joint stereoMode extension : MS StereoCodec ID : 55Codec ID/Hint : MP3Duration : 9mn 44sBit rate mode : ConstantBit rate : 128 KbpsChannel(s) : 2 channelsSampling rate : 48.0 KHzCompression mode : LossyStream size : 8.92 MiB (9%)Alignment : Aligned on interleavesInterleave, duration : 80 ms (2.00 video frames)Interleave, preload duration : 504 msWriting library : LAME3.98rEncoding settings : -m j -V 4 -q 2 -lowpass 17 -b 128


Трекер:  [ 26-Май-2018 12:30 ]

  

Скачать .torrent

Размер .torrent файла 16 KB


Размер: 100 MB
Хэш (hash) релиза: cafbd8440032ea788ce49f4b2093c992316a361d
Подписка на обновления:

Еще никто не оставлял запись к записи скачать торрент Украденный портрет Uloupený obraz . Будь первым!

!Обратная связь