Littlebyte | Zachary Bennett | Rons Liquid Splatz

Скачать через торрент [VIDEO] Джуманджи: Зов джунглей Jumanji: Welcome to the Jungle бесплатно русская версия torrent активатор

Статистика раздачи
Размер:  1.77 GB   |    Зарегистрирован:  30 дней   |    .torrent скачан:  34 раза   |   
Раздают:  1  
   
загрузка...
 
Автор Сообщение

Galfimbul

avatar Galfimbul


Джуманджи: Зов джунглей / Jumanji: Welcome to the Jungle


Год выпуска: 2017
Страна: США / Sony Pictures Entertainment
Жанр: фэнтези, боевик, комедия, приключения
Продолжительность: 01:59:03
Перевод №1: русский Профессиональный (полное дублирование) BD EUR
Перевод №2: украинский Профессиональный (полное дублирование) iTunes
Оригинальная дорожка: Есть
Субтитры: русские (форсированные, полные), украинские (полные), английские (полные, SDH)
Режиссер: Джейк Кэздан / Jake Kasdan
В ролях: Дуэйн Джонсон, Кевин Харт, Джек Блэк, Карен Гиллан, Риз Дэрби, Бобби Каннавейл, Ник Джонас, Алекс Вулф, Сер’Дариус Блэйн, Мэдисон Исман и другие .
Описание: Четверо подростков оказываются внутри игры «Джуманджи». Их ждет схватка с носорогами, черными мамбами, а на каждом шагу будет подстерегать бесконечная череда ловушек и головоломок. Чтобы пройти игру и остаться в живых, им придется перевоплотиться в персонажей игры: робкий и застенчивый Спенсер превращается в отважного и сильного исследователя, здоровяк Фридж — в коротышку, модница и красавица Беттани — в профессора, а неуклюжая и нескладная Марта становится бесстрашной и ловкой амазонкой. Друзьям придется привыкнуть к совершенно новым и таким непривычным для себя ролям и найти дорогу домой .
Релиз группы

Качество: BDRip / рип с Blu-ray disc 1080p [EUR]
Формат: MP4
Видео кодек: H.264
Аудио кодек: AAC
Видео: 960x402 AR:2.39 1740 kbps 23.976 fps
Аудио №1: [Russian] 2ch 48 kHz 128 kbps - [Dub] Профессиональный (полное дублирование) Blu-Ray EUR
Аудио №2: [Ukrainian] 2ch 48 kHz 128 kbps - [Dub] Профессиональный (полное дублирование) iTunes
Аудио №3: [English] 2ch 48 kHz 128 kbps - Original
avs [info]: 960x402p 1:1 @ 24000/1001 fps (cfr)
x264 [info]: using SAR=1/1
x264 [info]: using cpu capabilities: MMX2 SSE2Fast SSSE3 SSE4.2 AVX FMA3 BMI2 AVX2
x264 [info]: profile High, level 4.1

x264 [info]: frame I:2119 Avg QP:16.95 size: 60312
x264 [info]: frame P:43789 Avg QP:20.73 size: 17396
x264 [info]: frame B:125356 Avg QP:22.79 size: 5287
x264 [info]: consecutive B-frames: 4.4% 5.2% 10.6% 33.7% 16.1% 20.1% 3.7% 3.2% 1.4% 1.5%
x264 [info]: mb I I16..4: 3.4% 72.0% 24.7%
x264 [info]: mb P I16..4: 0.8% 9.7% 2.5% P16..4: 33.1% 35.9% 12.1% 0.0% 0.0% skip: 5.9%
x264 [info]: mb B I16..4: 0.1% 1.2% 0.4% B16..8: 33.7% 19.4% 3.0% direct: 4.5% skip:37.6% L0:40.2% L1:43.7% BI:16.1%
x264 [info]: 8x8 transform intra:72.5% inter:63.8%
x264 [info]: direct mvs spatial:96.2% temporal:3.8%
x264 [info]: coded y,uvDC,uvAC intra: 84.9% 81.2% 52.9% inter: 22.5% 15.9% 6.8%
x264 [info]: i16 v,h,dc,p: 10% 30% 3% 56%
x264 [info]: i8 v,h,dc,ddl,ddr,vr,hd,vl,hu: 10% 8% 4% 10% 14% 14% 15% 13% 14%
x264 [info]: i4 v,h,dc,ddl,ddr,vr,hd,vl,hu: 29% 10% 4% 6% 11% 11% 10% 8% 10%
x264 [info]: i8c dc,h,v,p: 35% 26% 20% 18%
x264 [info]: Weighted P-Frames: Y:12.6% UV:8.1%
x264 [info]: ref P L0: 55.5% 14.5% 13.3% 5.3% 3.8% 3.1% 2.4% 1.8% 0.3% 0.0%
x264 [info]: ref B L0: 82.3% 8.2% 4.0% 2.1% 1.8% 1.1% 0.4%
x264 [info]: ref B L1: 95.7% 4.3%
x264 [info]: kb/s:1738.51

encoded 171264 frames, 17.13 fps, 1738.51 kb/s
ОбщееПолное имя : D:\Torrents\Jumanji Welcome to the Jungle.2017.BDRip.x264.960x.rip by Frost O.S.mp4Формат : MPEG-4Профиль формата : Base MediaИдентификатор кодека : isom (isom)Размер файла : 1,77 ГбайтПродолжительность : 1 ч. 59 м.Режим общего битрейта : ПеременныйОбщий поток : 2130 Кбит/секДата кодирования : UTC 2018-05-25 16:40:18Дата пометки : UTC 2018-05-25 16:40:18Программа кодирования : My MP4Box GUI 0.6.0.6

ВидеоИдентификатор : 1Формат : AVCФормат/Информация : Advanced Video CodecПрофиль формата : [email protected]Настройки формата : CABAC / 8 Ref FramesПараметр CABAC формата : ДаПараметр RefFrames формата : 8 кадровИдентификатор кодека : avc1Идентификатор кодека/Информация : Advanced Video CodingПродолжительность : 1 ч. 59 м.Битрейт : 1740 Кбит/секМаксимальный битрейт : 6918 Кбит/секШирина : 960 пикселейВысота : 402 пикселяСоотношение сторон : 2,40:1Режим частоты кадров : ПостоянныйЧастота кадров : 23,976 (24000/1001) кадра/секЦветовое пространство : YUVСубдискретизация насыщенности : 4:2:0Битовая глубина : 8 битТип развёртки : ПрогрессивнаяБит/(Пиксели*Кадры) : 0.188Размер потока : 1,45 Гбайт (82%)Заголовок : Jumanji Welcome to the Jungle.2017.BDRip.x264.960x.rip by Frost O.SБиблиотека кодирования : x264 core 152 r2851 ba24899Настройки программы : cabac=1 / ref=8 / deblock=1:-2:0 / analyse=0x3:0x113 / me=umh / subme=11 / psy=1 / psy_rd=1.05:0.00 / mixed_ref=1 / me_range=32 / chroma_me=1 / trellis=2 / 8x8dct=1 / cqm=0 / deadzone=21,11 / fast_pskip=0 / chroma_qp_offset=-2 / threads=6 / lookahead_threads=1 / sliced_threads=0 / nr=0 / decimate=0 / interlaced=0 / bluray_compat=0 / constrained_intra=0 / bframes=9 / b_pyramid=2 / b_adapt=2 / b_bias=0 / direct=3 / weightb=1 / open_gop=0 / weightp=2 / keyint=250 / keyint_min=23 / scenecut=40 / intra_refresh=0 / rc=2pass / mbtree=0 / bitrate=1740 / ratetol=1.0 / qcomp=0.70 / qpmin=0 / qpmax=69 / qpstep=4 / cplxblur=20.0 / qblur=0.5 / ip_ratio=1.40 / pb_ratio=1.30 / aq=2:0.90Дата кодирования : UTC 2018-05-25 08:41:18Дата пометки : UTC 2018-05-25 16:40:48Цветовой диапазон : LimitedОсновные цвета : BT.709Характеристики трансфера : BT.709Коэффициенты матрицы : BT.709

Аудио #1Идентификатор : 2Формат : AACФормат/Информация : Advanced Audio CodecПрофиль формата : LCИдентификатор кодека : mp4a-40-2Продолжительность : 1 ч. 59 м.Вид битрейта : ПеременныйБитрейт : 128 Кбит/секМаксимальный битрейт : 137 Кбит/секКаналы : 2 каналаРасположение каналов : Front: L RЧастота : 48,0 КГцЧастота кадров : 46,875 кадров/сек (1024 SPF)Метод сжатия : С потерямиРазмер потока : 109 Мбайт (6%)Заголовок : Russian / Dub, BD EURДата кодирования : UTC 2018-05-25 16:40:44Дата пометки : UTC 2018-05-25 16:40:48

Аудио #2Идентификатор : 3Формат : AACФормат/Информация : Advanced Audio CodecПрофиль формата : LCИдентификатор кодека : mp4a-40-2Продолжительность : 1 ч. 59 м.Вид битрейта : ПеременныйБитрейт : 128 Кбит/секМаксимальный битрейт : 135 Кбит/секКаналы : 2 каналаРасположение каналов : Front: L RЧастота : 48,0 КГцЧастота кадров : 46,875 кадров/сек (1024 SPF)Метод сжатия : С потерямиРазмер потока : 109 Мбайт (6%)Заголовок : Ukrainian / Dub, iTunesДата кодирования : UTC 2018-05-25 16:40:46Дата пометки : UTC 2018-05-25 16:40:48

Аудио #3Идентификатор : 4Формат : AACФормат/Информация : Advanced Audio CodecПрофиль формата : LCИдентификатор кодека : mp4a-40-2Продолжительность : 1 ч. 59 м.Вид битрейта : ПеременныйБитрейт : 128 Кбит/секМаксимальный битрейт : 134 Кбит/секКаналы : 2 каналаРасположение каналов : Front: L RЧастота : 48,0 КГцЧастота кадров : 46,875 кадров/сек (1024 SPF)Метод сжатия : С потерямиРазмер потока : 109 Мбайт (6%)Заголовок : English / OriginalДата кодирования : UTC 2018-05-25 16:40:47Дата пометки : UTC 2018-05-25 16:40:48

Текст #1Идентификатор : 5Формат : Timed TextИдентификатор кодека : tx3gПродолжительность : 1 ч. 59 м.Вид битрейта : ПеременныйБитрейт : 0 бит/секРазмер потока : 117 байт (0%)Заголовок : Russian / ForcedForced : НетДата кодирования : UTC 2018-05-25 16:40:48Дата пометки : UTC 2018-05-25 16:40:48

Текст #2Идентификатор : 6Формат : Timed TextИдентификатор кодека : tx3gПродолжительность : 1 ч. 59 м.Вид битрейта : ПеременныйБитрейт : 101 бит/секРазмер потока : 88,4 Кбайт (0%)Заголовок : Russian / FullForced : НетДата кодирования : UTC 2018-05-25 16:40:48Дата пометки : UTC 2018-05-25 16:40:48

Текст #3Идентификатор : 7Формат : Timed TextИдентификатор кодека : tx3gПродолжительность : 1 ч. 59 м.Вид битрейта : ПеременныйБитрейт : 84 бит/секРазмер потока : 72,8 Кбайт (0%)Заголовок : Ukrainian / FullForced : НетДата кодирования : UTC 2018-05-25 16:40:48Дата пометки : UTC 2018-05-25 16:40:48

Текст #4Идентификатор : 8Формат : Timed TextИдентификатор кодека : tx3gПродолжительность : 1 ч. 50 м.Вид битрейта : ПеременныйБитрейт : 74 бит/секРазмер потока : 59,8 Кбайт (0%)Заголовок : English / FullForced : НетДата кодирования : UTC 2018-05-25 16:40:48Дата пометки : UTC 2018-05-25 16:40:48

Текст #5Идентификатор : 9Формат : Timed TextИдентификатор кодека : tx3gПродолжительность : 1 ч. 50 м.Вид битрейта : ПеременныйБитрейт : 81 бит/секРазмер потока : 65,3 Кбайт (0%)Заголовок : English / Full SDHForced : НетДата кодирования : UTC 2018-05-25 16:40:48Дата пометки : UTC 2018-05-25 16:40:48


Трекер:  [ 25-Май-2018 20:06 ]

  

Скачать .torrent

Размер .torrent файла 18 KB


Размер: 1.77 GB
Хэш (hash) релиза: 99f88aa1cf03b942409a4b84ce3864f79e2a6191

Еще никто не оставлял запись к записи скачать торрент [VIDEO] Джуманджи: Зов джунглей Jumanji: Welcome to the Jungle . Будь первым!

!Обратная связь