TrueFR BDRiP, HD Note : +250 Baywatch - Alerte à Malibu | Responder | Saison 2 !

Скачать через торрент [VIDEO] Джуманджи: Зов джунглей Jumanji: Welcome to the Jungle бесплатно русская версия torrent активатор

Статистика раздачи
Размер:  538 MB   |    Зарегистрирован:  30 дней   |    .torrent скачан:  25 раз   |   
Раздают:  1  
   
загрузка...
 
Автор Сообщение

Galfimbul

avatar Galfimbul


Джуманджи: Зов джунглей / Jumanji: Welcome to the Jungle


Год выпуска: 2017
Страна: США / Sony Pictures Entertainment
Жанр: фэнтези, боевик, комедия, приключения
Продолжительность: 01:59:03
Перевод: русский Профессиональный (полное дублирование) BD EUR
Субтитры: нет
Режиссер: Джейк Кэздан / Jake Kasdan
В ролях: Дуэйн Джонсон, Кевин Харт, Джек Блэк, Карен Гиллан, Риз Дэрби, Бобби Каннавейл, Ник Джонас, Алекс Вулф, Сер’Дариус Блэйн, Мэдисон Исман и другие .
Описание: Четверо подростков оказываются внутри игры «Джуманджи». Их ждет схватка с носорогами, черными мамбами, а на каждом шагу будет подстерегать бесконечная череда ловушек и головоломок. Чтобы пройти игру и остаться в живых, им придется перевоплотиться в персонажей игры: робкий и застенчивый Спенсер превращается в отважного и сильного исследователя, здоровяк Фридж — в коротышку, модница и красавица Беттани — в профессора, а неуклюжая и нескладная Марта становится бесстрашной и ловкой амазонкой. Друзьям придется привыкнуть к совершенно новым и таким непривычным для себя ролям и найти дорогу домой .
Релиз группы

Качество: HDRip / рип с BDRip 720p
Формат: MP4
Видео кодек: XviD
Аудио кодек: AAC
Видео: 480x200 AR:2.40 499 kbps 23.976 fps
Аудио: [Russian] 2ch 48 kHz 128 kbps - [Dub] Профессиональный (полное дублирование) Blu-Ray EUR
ОбщееПолное имя : D:\Torrents\Jumanji Welcome to the Jungle.2017.HDRip.XviD.480x.rip by Frost O.S.mp4Формат : MPEG-4Профиль формата : Base MediaИдентификатор кодека : isom (isom)Размер файла : 538 МбайтПродолжительность : 1 ч. 59 м.Режим общего битрейта : ПеременныйОбщий поток : 631 Кбит/секДата кодирования : UTC 2018-05-25 16:49:06Дата пометки : UTC 2018-05-25 16:49:06Программа кодирования : My MP4Box GUI 0.6.0.6

ВидеоИдентификатор : 1Формат : MPEG-4 VisualПрофиль формата : Advanced [email protected]Настройки формата : BVOP / QPel / Custom MatrixПараметр BVOP формата : ДаПараметр QPel формата : ДаПараметр GMC формата : Без точки переходаПараметр матрицы формата : ВыборочнаяИдентификатор кодека : mp4v-20Продолжительность : 1 ч. 59 м.Вид битрейта : ПеременныйБитрейт : 499 Кбит/секМаксимальный битрейт : 2880 Кбит/секШирина : 480 пикселейВысота : 200 пикселейСоотношение сторон : 2,40:1Режим частоты кадров : ПостоянныйЧастота кадров : 23,976 (24000/1001) кадра/секЦветовое пространство : YUVСубдискретизация насыщенности : 4:2:0Битовая глубина : 8 битТип развёртки : ПрогрессивнаяМетод сжатия : С потерямиБит/(Пиксели*Кадры) : 0.217Размер потока : 425 Мбайт (79%)Заголовок : Jumanji Welcome to the Jungle.2017.HDRip.XviD.480x.rip by Frost O.SБиблиотека кодирования : XviD 1.2.1 (UTC 2008-12-04)Дата кодирования : UTC 2018-05-25 16:49:06Дата пометки : UTC 2018-05-25 16:49:15

АудиоИдентификатор : 2Формат : AACФормат/Информация : Advanced Audio CodecПрофиль формата : LCИдентификатор кодека : mp4a-40-2Продолжительность : 1 ч. 59 м.Вид битрейта : ПеременныйБитрейт : 128 Кбит/секМаксимальный битрейт : 137 Кбит/секКаналы : 2 каналаРасположение каналов : Front: L RЧастота : 48,0 КГцЧастота кадров : 46,875 кадров/сек (1024 SPF)Метод сжатия : С потерямиРазмер потока : 109 Мбайт (20%)Заголовок : Russian / Dub, BD EURДата кодирования : UTC 2018-05-25 16:49:14Дата пометки : UTC 2018-05-25 16:49:15


Трекер:  [ 25-Май-2018 20:06 ]

  

Скачать .torrent

Размер .torrent файла 11 KB


Размер: 538 MB
Хэш (hash) релиза: e95d85bf3f07b26aa111636121bc555c751e4ee7

Еще никто не оставлял запись к записи скачать торрент [VIDEO] Джуманджи: Зов джунглей Jumanji: Welcome to the Jungle . Будь первым!

!Обратная связь