Dwayne Johnson | Love You More | Watch movies

Скачать через торрент [VIDEO] Джуманджи: Зов джунглей Jumanji: Welcome to the Jungle бесплатно русская версия torrent активатор

Статистика раздачи
Размер:  2.82 GB   |    Зарегистрирован:  30 дней   |    .torrent скачан:  29 раз   |   
Раздают:  1  
   
загрузка...
 
Автор Сообщение

Galfimbul

avatar Galfimbul


Джуманджи: Зов джунглей / Jumanji: Welcome to the Jungle


Год выпуска: 2017
Страна: США / Sony Pictures Entertainment
Жанр: фэнтези, боевик, комедия, приключения
Продолжительность: 01:59:03
Перевод №1: русский Профессиональный (полное дублирование) BD EUR
Перевод №2: украинский Профессиональный (полное дублирование) iTunes
Оригинальная дорожка: Есть
Субтитры: русские (форсированные, полные), украинские (полные), английские (полные, SDH)
Режиссер: Джейк Кэздан / Jake Kasdan
В ролях: Дуэйн Джонсон, Кевин Харт, Джек Блэк, Карен Гиллан, Риз Дэрби, Бобби Каннавейл, Ник Джонас, Алекс Вулф, Сер’Дариус Блэйн, Мэдисон Исман и другие .
Описание: Четверо подростков оказываются внутри игры «Джуманджи». Их ждет схватка с носорогами, черными мамбами, а на каждом шагу будет подстерегать бесконечная череда ловушек и головоломок. Чтобы пройти игру и остаться в живых, им придется перевоплотиться в персонажей игры: робкий и застенчивый Спенсер превращается в отважного и сильного исследователя, здоровяк Фридж — в коротышку, модница и красавица Беттани — в профессора, а неуклюжая и нескладная Марта становится бесстрашной и ловкой амазонкой. Друзьям придется привыкнуть к совершенно новым и таким непривычным для себя ролям и найти дорогу домой .
Релиз группы

Качество: BDRip / рип с Blu-ray disc 1080p [EUR]
Формат: MP4
Видео кодек: H.264
Аудио кодек: AAC
Видео: 1280x536 AR:2.39 3000 kbps 23.976 fps
Аудио №1: [Russian] 2ch 48 kHz 128 kbps - [Dub] Профессиональный (полное дублирование) Blu-Ray EUR
Аудио №2: [Ukrainian] 2ch 48 kHz 128 kbps - [Dub] Профессиональный (полное дублирование) iTunes
Аудио №3: [English] 2ch 48 kHz 128 kbps - Original
avs [info]: 1280x536p 1:1 @ 24000/1001 fps (cfr)
x264 [info]: using SAR=1/1
x264 [info]: using cpu capabilities: MMX2 SSE2Fast SSSE3 SSE4.2 AVX FMA3 BMI2 AVX2
x264 [info]: profile High, level 4.1

x264 [info]: frame I:2114 Avg QP:16.32 size: 97072
x264 [info]: frame P:45762 Avg QP:19.88 size: 29522
x264 [info]: frame B:123388 Avg QP:21.95 size: 9099
x264 [info]: consecutive B-frames: 5.2% 6.2% 12.6% 32.2% 14.3% 19.8% 3.9% 5.9%
x264 [info]: mb I I16..4: 3.8% 77.3% 18.9%
x264 [info]: mb P I16..4: 0.9% 10.0% 1.6% P16..4: 34.1% 36.9% 11.3% 0.0% 0.0% skip: 5.3%
x264 [info]: mb B I16..4: 0.1% 1.2% 0.2% B16..8: 35.0% 19.6% 2.8% direct: 4.5% skip:36.6% L0:40.4% L1:44.6% BI:15.0%
x264 [info]: 8x8 transform intra:79.4% inter:66.0%
x264 [info]: direct mvs spatial:97.1% temporal:2.9%
x264 [info]: coded y,uvDC,uvAC intra: 88.3% 81.6% 54.2% inter: 24.1% 17.8% 7.4%
x264 [info]: i16 v,h,dc,p: 8% 23% 3% 67%
x264 [info]: i8 v,h,dc,ddl,ddr,vr,hd,vl,hu: 9% 7% 3% 10% 15% 14% 15% 13% 14%
x264 [info]: i4 v,h,dc,ddl,ddr,vr,hd,vl,hu: 12% 11% 3% 8% 16% 14% 14% 10% 12%
x264 [info]: i8c dc,h,v,p: 37% 25% 18% 21%
x264 [info]: Weighted P-Frames: Y:12.1% UV:8.0%
x264 [info]: ref P L0: 54.8% 13.4% 14.3% 5.4% 4.1% 3.1% 2.6% 1.8% 0.3% 0.0%
x264 [info]: ref B L0: 82.9% 8.0% 4.1% 2.0% 1.4% 1.1% 0.4%
x264 [info]: ref B L1: 96.1% 3.9%
x264 [info]: kb/s:3000.20

encoded 171264 frames, 10.31 fps, 3000.20 kb/s
ОбщееПолное имя : D:\Torrents\Jumanji Welcome to the Jungle.2017.BDRip.x264.1280x.rip by Frost O.S.mp4Формат : MPEG-4Профиль формата : Base MediaИдентификатор кодека : isom (isom)Размер файла : 2,82 ГбайтПродолжительность : 1 ч. 59 м.Режим общего битрейта : ПеременныйОбщий поток : 3392 Кбит/секДата кодирования : UTC 2018-05-25 16:24:55Дата пометки : UTC 2018-05-25 16:24:55Программа кодирования : My MP4Box GUI 0.6.0.6

ВидеоИдентификатор : 1Формат : AVCФормат/Информация : Advanced Video CodecПрофиль формата : [email protected]Настройки формата : CABAC / 8 Ref FramesПараметр CABAC формата : ДаПараметр RefFrames формата : 8 кадровИдентификатор кодека : avc1Идентификатор кодека/Информация : Advanced Video CodingПродолжительность : 1 ч. 59 м.Битрейт : 3000 Кбит/секМаксимальный битрейт : 12,0 Мбит/секШирина : 1280 пикселейВысота : 536 пикселейСоотношение сторон : 2,40:1Режим частоты кадров : ПостоянныйЧастота кадров : 23,976 (24000/1001) кадра/секЦветовое пространство : YUVСубдискретизация насыщенности : 4:2:0Битовая глубина : 8 битТип развёртки : ПрогрессивнаяБит/(Пиксели*Кадры) : 0.182Размер потока : 2,49 Гбайт (88%)Заголовок : Jumanji Welcome to the Jungle.2017.BDRip.x264.1280x.rip by Frost O.SБиблиотека кодирования : x264 core 152 r2851 ba24899Настройки программы : cabac=1 / ref=8 / deblock=1:-2:-1 / analyse=0x3:0x113 / me=umh / subme=11 / psy=1 / psy_rd=1.00:0.00 / mixed_ref=1 / me_range=32 / chroma_me=1 / trellis=2 / 8x8dct=1 / cqm=0 / deadzone=21,11 / fast_pskip=0 / chroma_qp_offset=-2 / threads=6 / lookahead_threads=1 / sliced_threads=0 / nr=0 / decimate=0 / interlaced=0 / bluray_compat=0 / constrained_intra=0 / bframes=7 / b_pyramid=2 / b_adapt=2 / b_bias=0 / direct=3 / weightb=1 / open_gop=0 / weightp=2 / keyint=250 / keyint_min=23 / scenecut=40 / intra_refresh=0 / rc=2pass / mbtree=0 / bitrate=3000 / ratetol=1.0 / qcomp=0.70 / qpmin=0 / qpmax=69 / qpstep=4 / cplxblur=20.0 / qblur=0.5 / ip_ratio=1.40 / pb_ratio=1.30 / aq=2:0.80Дата кодирования : UTC 2018-05-25 14:58:39Дата пометки : UTC 2018-05-25 16:26:07Цветовой диапазон : LimitedОсновные цвета : BT.709Характеристики трансфера : BT.709Коэффициенты матрицы : BT.709

Аудио #1Идентификатор : 2Формат : AACФормат/Информация : Advanced Audio CodecПрофиль формата : LCИдентификатор кодека : mp4a-40-2Продолжительность : 1 ч. 59 м.Вид битрейта : ПеременныйБитрейт : 128 Кбит/секМаксимальный битрейт : 137 Кбит/секКаналы : 2 каналаРасположение каналов : Front: L RЧастота : 48,0 КГцЧастота кадров : 46,875 кадров/сек (1024 SPF)Метод сжатия : С потерямиРазмер потока : 109 Мбайт (4%)Заголовок : Russian / Dub, Blu-Ray EURДата кодирования : UTC 2018-05-25 16:26:00Дата пометки : UTC 2018-05-25 16:26:07

Аудио #2Идентификатор : 3Формат : AACФормат/Информация : Advanced Audio CodecПрофиль формата : LCИдентификатор кодека : mp4a-40-2Продолжительность : 1 ч. 59 м.Вид битрейта : ПеременныйБитрейт : 128 Кбит/секМаксимальный битрейт : 135 Кбит/секКаналы : 2 каналаРасположение каналов : Front: L RЧастота : 48,0 КГцЧастота кадров : 46,875 кадров/сек (1024 SPF)Метод сжатия : С потерямиРазмер потока : 109 Мбайт (4%)Заголовок : Ukrainian / Dub, iTunesДата кодирования : UTC 2018-05-25 16:26:03Дата пометки : UTC 2018-05-25 16:26:07

Аудио #3Идентификатор : 4Формат : AACФормат/Информация : Advanced Audio CodecПрофиль формата : LCИдентификатор кодека : mp4a-40-2Продолжительность : 1 ч. 59 м.Вид битрейта : ПеременныйБитрейт : 128 Кбит/секМаксимальный битрейт : 134 Кбит/секКаналы : 2 каналаРасположение каналов : Front: L RЧастота : 48,0 КГцЧастота кадров : 46,875 кадров/сек (1024 SPF)Метод сжатия : С потерямиРазмер потока : 109 Мбайт (4%)Заголовок : English / OriginalДата кодирования : UTC 2018-05-25 16:26:04Дата пометки : UTC 2018-05-25 16:26:07

Текст #1Идентификатор : 5Формат : Timed TextИдентификатор кодека : tx3gПродолжительность : 1 ч. 59 м.Вид битрейта : ПеременныйБитрейт : 0 бит/секРазмер потока : 117 байт (0%)Заголовок : Russian / ForcedForced : НетДата кодирования : UTC 2018-05-25 16:26:06Дата пометки : UTC 2018-05-25 16:26:07

Текст #2Идентификатор : 6Формат : Timed TextИдентификатор кодека : tx3gПродолжительность : 1 ч. 59 м.Вид битрейта : ПеременныйБитрейт : 101 бит/секРазмер потока : 88,4 Кбайт (0%)Заголовок : Russian / FullForced : НетДата кодирования : UTC 2018-05-25 16:26:06Дата пометки : UTC 2018-05-25 16:26:07

Текст #3Идентификатор : 7Формат : Timed TextИдентификатор кодека : tx3gПродолжительность : 1 ч. 59 м.Вид битрейта : ПеременныйБитрейт : 84 бит/секРазмер потока : 72,8 Кбайт (0%)Заголовок : Ukrainian / FullForced : НетДата кодирования : UTC 2018-05-25 16:26:06Дата пометки : UTC 2018-05-25 16:26:07

Текст #4Идентификатор : 8Формат : Timed TextИдентификатор кодека : tx3gПродолжительность : 1 ч. 50 м.Вид битрейта : ПеременныйБитрейт : 74 бит/секРазмер потока : 59,8 Кбайт (0%)Заголовок : English / FullForced : НетДата кодирования : UTC 2018-05-25 16:26:06Дата пометки : UTC 2018-05-25 16:26:07

Текст #5Идентификатор : 9Формат : Timed TextИдентификатор кодека : tx3gПродолжительность : 1 ч. 50 м.Вид битрейта : ПеременныйБитрейт : 81 бит/секРазмер потока : 65,3 Кбайт (0%)Заголовок : English / Full SDHForced : НетДата кодирования : UTC 2018-05-25 16:26:07Дата пометки : UTC 2018-05-25 16:26:07


Трекер:  [ 25-Май-2018 19:36 ]

  

Скачать .torrent

Размер .torrent файла 14 KB


Размер: 2.82 GB
Хэш (hash) релиза: c3c8f02ed0a095719355b58cae3401501bfe369d

Еще никто не оставлял запись к записи скачать торрент [VIDEO] Джуманджи: Зов джунглей Jumanji: Welcome to the Jungle . Будь первым!

!Обратная связь