AVG PC TuneUp 2016 v16.52.2.34122. | Indie / Britpop | киберпанк

Скачать через торрент Трансформер из космоса Микро-коммандосы Даитрон-5 Фильм бесплатно в хорошем качестве torrent

Скачивайте на UnionPeer.org фильмы через торрент без регистрации. Новинки кино в хорошем качестве через торрент. На UnionPeer.org можно скачать через торрент фильмы 2014 и 2015 годов. Самые новые фильмы.

Скачать торрент Трансформер из космоса Микро-коммандосы Даитрон-5 бесплатно через .torrent фильм мультфильм сериал

Статистика раздачи
Размер:  689 MB   |    Зарегистрирован:  2 месяца 24 дня   |    .torrent скачан:  32 раза   |   
Раздают:  1  
   
загрузка...
 
Автор Сообщение

Galfimbul

avatar Galfimbul


Трансформер из космоса / Микро-коммандосы Даитрон-5 / Космический трансформер / Micro teukgongdae Daiyateuron 5 / Space Transformer

Страна: Южная Корея
Жанр: анимация
Продолжительность: 01:02:00
Год выпуска: 1985
Перевод: Авторский (одноголосый закадровый) Александр Кашкин (Первомайский)
Русские субтитры: нет

Режиссёр: Су-ёнг Джонг / Su-yong Jeong

Описание: Ужасная инфекция, в виде зеленых гоблинов, заражает Айви, девушки, координирущую
космическую оборону Земли, теперь что бы спасти мир от опасности в её тело отправляют лучших
бойцов и боевых роботов.

Доп. информация: Этот мультфильм также выходил как "Микро-коммандосы Даитрон-5", но для
мирового проката был издан как "Космический трансформер".

Дорожка с А. Кашкиным синхронизирована и наложена ale_x2008 при помощи Sony Vegas и
VirtualDubMod.

За оцифрованную с VHS дорожку благодарим - d_rocker

Релиз

Качество: DVDRip
Формат: AVI
Видео: XviD build 73, 512x400 (1.28:1), 23.976 fps, 1155 kbps avg, 0.23 bit/pixel
Аудио: AC3 Dolby Digital, 48000Hz 2/0 (L,R) ch (mono), 192 kbps avg
Аудио 2: AC3 Dolby Digital, 48000Hz 2/0 (L,R) ch, 192 kbps avg Eng
Субтитры: отсутствуют
Космический трансформер - Space Transformer [by ale_x2008].aviFormat : AVIFormat/Info : Audio Video InterleaveFile size : 689 MiBDuration : 1 h 2 minOverall bit rate : 1 554 kb/sMovie name : Космический трансформер - Space Transformer [by ale_x2008]Director : by ale_x2008Writing application : VirtualDubMod 1.5.10.2 (build 2540/release)Copyright : Edich2Comment : RuTracker.org

VideoID : 0Format : MPEG-4 VisualFormat profile : Advanced [email protected] settings : BVOP2 / Custom MatrixFormat settings, BVOP : 2Format settings, QPel : NoFormat settings, GMC : No warppointsFormat settings, Matrix : CustomCodec ID : XVIDCodec ID/Hint : XviDDuration : 1 h 2 minBit rate : 1 156 kb/sWidth : 512 pixelsHeight : 400 pixelsDisplay aspect ratio : 1.280Frame rate : 23.976 (24000/1001) FPSColor space : YUVChroma subsampling : 4:2:0Bit depth : 8 bitsScan type : ProgressiveCompression mode : LossyBits/(Pixel*Frame) : 0.235Stream size : 513 MiB (74%)Writing library : XviD 73

Audio #1ID : 1Format : AC-3Format/Info : Audio Coding 3Codec ID : 2000Duration : 1 h 2 minBit rate mode : ConstantBit rate : 192 kb/sChannel(s) : 2 channelsChannel positions : Front: L RSampling rate : 48.0 kHzFrame rate : 31.250 FPS (1536 SPF)Bit depth : 16 bitsCompression mode : LossyStream size : 85.2 MiB (12%)Alignment : Split accross interleavesInterleave, duration : 42 ms (1.00 video frame)Interleave, preload duratio : 500 msService kind : Complete Main

Audio #2ID : 2Format : AC-3Format/Info : Audio Coding 3Codec ID : 2000Duration : 1 h 2 minBit rate mode : ConstantBit rate : 192 kb/sChannel(s) : 2 channelsChannel positions : Front: L RSampling rate : 48.0 kHzFrame rate : 31.250 FPS (1536 SPF)Bit depth : 16 bitsCompression mode : LossyStream size : 85.2 MiB (12%)Alignment : Split accross interleavesInterleave, duration : 42 ms (1.00 video frame)Interleave, preload duratio : 500 msService kind : Complete Main


Трекер:  [ 25-Май-2018 18:01 ]

  

Скачать .torrent

Размер .torrent файла 14 KB


Размер: 689 MB
Хэш (hash) релиза: b9e4e198ce1928b6788064160e13d5918c7ce7b3
Подписка на обновления:

Еще никто не оставлял запись к записи скачать торрент Трансформер из космоса Микро-коммандосы Даитрон-5 . Будь первым!

!Обратная связь