FxSound Enhancer Premium 13 020 + Crack [CracksNow] | Charlene Choi | Season 3 Episode 4 A Night at the Opera

Скачать через торрент Дикие предки Early Man Фильм бесплатно в хорошем качестве torrent

Скачивайте на UnionPeer.org фильмы через торрент без регистрации. Новинки кино в хорошем качестве через торрент. На UnionPeer.org можно скачать через торрент фильмы 2014 и 2015 годов. Самые новые фильмы.

Скачать торрент Дикие предки Early Man бесплатно через .torrent фильм мультфильм сериал

Статистика раздачи
Размер:  743 MB   |    Зарегистрирован:  30 дней   |    .torrent скачан:  47 раз   |   
Раздают:  1  
   
загрузка...
 
Автор Сообщение

Galfimbul

avatar Galfimbul


Дикие предки / Early Man

Страна: Великобритания, Франция
Жанр: мультфильм
Год выпуска: 2018
Продолжительность: 01:28:40
Перевод: Профессиональный (дублированный) | iTunes
Субтитры: нет
Оригинальная аудиодорожка: нет
Режиссер: Ник Парк / Nick Park
В ролях: Эдди Редмэйн, Том Хиддлстон, Мэйси Уильямс, Тимоти Сполл, Ричард Айоади, Марк Уильямс, Мириам Маргулис, Роб Брайдон, Ник Парк, Джонни Вегас
Описание: Каменный век и даже более поздние цивилизации — всё равно дикие предки, но как же они были похожи на нас. У них тоже было слишком много родственников, а мужчины боролись за любимую женщину. Они тоже обожали драгоценности, играли в кожаный мяч, и каждый стремился стать первым…
Качество видео: BDRip | EARLY_MAN_2018_RMX_BLUEBIRD
Формат видео: AVI

Видео: 688x368 (1.87:1), 23.976 fps, XviD build 73 ~1033 kbps avg, 0.17 bit/pixel
Аудио: 48 kHz, MPEG Layer 3, 2 ch, ~128.00 kbps avg
<div class="post-box-default">
<div class="post-box">Сэмпл</div>
</div>
Format                      : AVI
Format/Info                 : Audio Video Interleave
File size                   : 743 MiB
Duration                    : 1 h 28 min
Overall bit rate            : 1 171 kb/s
Writing application         : VirtualDubMod 1.5.10.3 | www.virtualdub-fr.org || (build 2550/release)
Writing library             : VirtualDubMod build 2550/release

Video
ID                          : 0
Format                      : MPEG-4 Visual
Format profile              : Advanced [email protected]
Format settings             : BVOP1
Format settings, BVOP       : 1
Format settings, QPel       : No
Format settings, GMC        : No warppoints
Format settings, Matrix     : Default (H.263)
Codec ID                    : XVID
Codec ID/Hint               : XviD
Duration                    : 1 h 28 min
Bit rate                    : 1 034 kb/s
Width                       : 688 pixels
Height                      : 368 pixels
Display aspect ratio        : 1.85:1
Frame rate                  : 23.976 (24000/1001) FPS
Color space                 : YUV
Chroma subsampling          : 4:2:0
Bit depth                   : 8 bits
Scan type                   : Progressive
Compression mode            : Lossy
Bits/(Pixel*Frame)          : 0.170
Stream size                 : 656 MiB (88%)
Writing library             : XviD 73

Audio
ID                          : 1
Format                      : MPEG Audio
Format version              : Version 1
Format profile              : Layer 3
Codec ID                    : 55
Codec ID/Hint               : MP3
Duration                    : 1 h 28 min
Bit rate mode               : Constant
Bit rate                    : 128 kb/s
Channel(s)                  : 2 channels
Sampling rate               : 48.0 kHz
Frame rate                  : 41.667 FPS (1152 SPF)
Compression mode            : Lossy
Stream size                 : 81.2 MiB (11%)
Alignment                   : Aligned on interleaves
Interleave, duration        : 42  ms (1.00 video frame)
Interleave, preload duratio : 504  ms
Writing library             : LAME3.99r
Encoding settings           : -m s -V 4 -q 2 -lowpass 17 -b 128


Трекер:  [ 25-Май-2018 17:01 ]

  

Скачать .torrent

Размер .torrent файла 15 KB


Размер: 743 MB
Хэш (hash) релиза: 485c4402f9d97be31c962153f07f14e2ab60d815
Подписка на обновления:

Еще никто не оставлял запись к записи скачать торрент Дикие предки Early Man . Будь первым!

!Обратная связь