gostream | FRAMED.Collection-PLAZA | Watch movie

Скачать через торрент Зерно Фильм бесплатно в хорошем качестве torrent

Скачивайте на UnionPeer.org фильмы через торрент без регистрации. Новинки кино в хорошем качестве через торрент. На UnionPeer.org можно скачать через торрент фильмы 2014 и 2015 годов. Самые новые фильмы.

Скачать торрент Зерно бесплатно через .torrent фильм мультфильм сериал

Статистика раздачи
Размер:  151 MB   |    Зарегистрирован:  30 дней   |    .torrent скачан:  17 раз   |   
Раздают:  1  
   
загрузка...
 
Автор Сообщение

Galfimbul

avatar Galfimbul


Зерно

Страна: Украина
Жанр: мультфильм для взрослых
Продолжительность: 00:09:54
Год выпуска: 2000
Перевод: не требуется
Русские субтитры: нет

Режиссёр: Александр Гуньковский / Олександр Гуньковський

Описание: Притча о человеке, который выпрашивал у небес помощи, и ответ получил одно крупное зёрнышко. Но в итоге распорядился им не впрок...

Качество: WEBRip
Формат: AVI
Видео: 1990 kbps, 640х480 (4:3), 25.000 fps, MPEG-4 Visual (XviD)
Аудио: 128 kbps, 44.1 kHz, 2 channels, MPEG Audio (MP3)
Субтитры: отсутствуют
GeneralComplete name : Зерно (2000).aviFormat : AVIFormat/Info : Audio Video InterleaveFile size : 151 MiBDuration : 9mn 54sOverall bit rate : 2 130 KbpsWriting application : Lavf55.19.104

VideoID : 0Format : MPEG-4 VisualFormat profile : [email protected] settings, BVOP : NoFormat settings, QPel : NoFormat settings, GMC : No warppointsFormat settings, Matrix : Default (H.263)Codec ID : XVIDCodec ID/Hint : XviDDuration : 9mn 54sBit rate : 1 990 KbpsWidth : 640 pixelsHeight : 480 pixelsDisplay aspect ratio : 4:3Frame rate : 25.000 fpsColor space : YUVChroma subsampling : 4:2:0Bit depth : 8 bitsScan type : ProgressiveCompression mode : LossyBits/(Pixel*Frame) : 0.259Stream size : 141 MiB (93%)Writing library : XviD 73

AudioID : 1Format : MPEG AudioFormat version : Version 1Format profile : Layer 3Mode : Joint stereoMode extension : MS StereoCodec ID : 55Codec ID/Hint : MP3Duration : 9mn 54sBit rate mode : ConstantBit rate : 128 KbpsChannel(s) : 2 channelsSampling rate : 44.1 KHzCompression mode : LossyStream size : 9.07 MiB (6%)Alignment : Aligned on interleavesInterleave, duration : 26 ms (0.65 video frame)Writing library : LAME3.99.5


Трекер:  [ 25-Май-2018 14:30 ]

  

Скачать .torrent

Размер .torrent файла 12 KB


Размер: 151 MB
Хэш (hash) релиза: 91e710f8b4b663d0ef70a9603e71065ed4343571
Подписка на обновления:

Торренты, похожие на Зерно скачать торрент

Форум Название Автор Размер S L Добавлен
Зарубежные фильмы до 2016 ·· Зерно правды / Ziarno prawdy (Борис Ланкош / Borys Lankosz) [2015, Польша, триллер, криминал, DVDRip] DVO (Den904 & DeadSno) Galfimbul 759582720724 MB 0 0 1442379707

08:01

16-Сен-15

Зарубежные фильмы до 2016 ·· Зерно правды / Ziarno prawdy (Борис Ланкош) [2015, Детектив, триллер, DVDRip] Sub Galfimbul 14443211241.35 GB 0 0 1441217648

21:14

2-Сен-15

Документальные фильмы и телепередачи ·· Зёрна и плевелы (Россия HD) (Константин Семин) [2015, документальный, HDTV 1080i] Galfimbul 39495894273.68 GB 0 0 1428246223

18:03

5-Апр-15

Документальные фильмы и телепередачи ·· Зерна и плевелы. Фильм Константина Семина (Константин Семин) [2015, документальный, SATRip] Galfimbul 876011068835 MB 0 0 1427240318

02:38

25-Мар-15

Документальные фильмы и телепередачи ·· Зерна и плевелы. Фильм Константина Семина (Константин Семин, Николай Дьяков) [2015, Документальный, SATRip-AVC] Galfimbul 935641119892 MB 0 0 1427240313

02:38

25-Мар-15

Российские фильмы до 2016 ·· Драгоценные зерна (Иосиф Хейфиц, Александр Зархи) [1948, Киноповесть, VHSRip] Galfimbul 14711562241.37 GB 0 0 1393614118

22:01

28-Фев-14

Зарубежные фильмы до 2016 ·· Приносящие удачу красные зерна / Manjadikuru (Анджали Менон / Anjali Menon) [2012, Индия, семейная драма, DVDRip] Sub Rus Galfimbul 733826463700 MB 0 0 1371977501

11:51

23-Июн-13

Российские фильмы до 2016 ·· Шекспиру и не снилось (Алексей Зернов) [2007, комедия, DVDRip-AVC] L 15631711301.46 GB 0 0 1324672207

23:30

23-Дек-11

Российские фильмы до 2016 ·· Шекспиру и не снилось (Алексей Зернов) [2007 г., Комедия, мелодрама] Sabin 14641090561.36 GB 0 0 1290721770

00:49

26-Ноя-10

Еще никто не оставлял запись к записи скачать торрент Зерно . Будь первым!

!Обратная связь