Comic GirlsS01E01 | Zorro (1957-1959) | Netherlands

Скачать через торрент Анон Anon бесплатно русская версия torrent активатор

Статистика раздачи
Размер:  3.48 GB   |    Зарегистрирован:  1 месяц   |    .torrent скачан:  20 раз   |   
Раздают:  1  
   
загрузка...
 
Автор Сообщение

Galfimbul

avatar Galfimbul


Анон / Anon
«Аноним - враг системы»

5.820 / 10 6.00 / 10
Год выпуска: 2018
Страна: США
Жанр: Фантастика, триллер
Продолжительность: 01:36:04

Перевод: Дублированный (iTunes)
Оригинальная аудиодорожка: Есть
Cубтитры: Русские форсированные, Русские, Английские
Режиссёр: Эндрю Никкол
Сценарий: Эндрю Никкол
Продюсер: Ода Шефер, Дэниэл Баур, Дэниэл Бекерман
Оператор: Амир М. Мокри
Композитор: Кристоф Бек
Художник: Филип Айви, Александра Маринкович, Кристофер Харгадон
Монтаж: Алекс Родригес
В ролях: Клайв Оуэн, Афия Беннетт, Морган Аллен, Джеффри Мен, Джеймс Там, Аманда Сайфред, Джонатан Поттс, Рэйчел Робертс, Тойин Ишола, Себастьян Пижотт

Бюджет: $20 000 000
Сборы в России: $393 118

Мировая премьера: 3 мая 2018
Премьера (РФ): 10 мая 2018, «Парадиз»

Описание: Идеальное общество будущего: режим тотального надзора, отсутствие личной жизни, приватных территорий и гражданских прав. Казалось бы, в полностью контролируемом государстве нет места ошибкам и правонарушениям. Но однажды детектив Сол Фриленд знакомится с девушкой, которая не числится в базах данных. Перед копом приоткрывается дверь преступного мира новой эры…
Качество исходника: WEB-DL 720p (NNMClub)
Качество: WEB-DL
Тип: HD (720p)
Контейнер: M4V
Видео: H.264, 960x692, 1.85:1, 4 108 Kbps, 25.000 fps

Аудио 1: Русский/Дублированный (iTunes), AAC / 2.0 / 160 Kbps / 48.0 KHz
Аудио 2: Английский/Оригинальная дорожка , AAC / 2.0 / 160 Kbps / 48.0 KHz
Аудио 3: Русский/Дублированный (iTunes), AC-3 / 5.1 / 384 Kbps / 48.0 KHz
Аудио 4: Английский/Оригинальная дорожка , AC-3 / 5.1 / 384 Kbps / 48.0 KHz

Субтитры 1: Русские форсированные
Субтитры 2: Русские полные
Субтитры 3: Английские полные
Sort Name: Анон
XID: Apple:vendor_id:2018-979121
contentID: 1380680996
Copyright: © 2018 Парадиз
Screenwriters: Эндрю Никкол
Producers: Ода Шефер, Дэниэл Баур, Дэниэл Бекерма
Director: Эндрю Никкол
Cast: Клайв Оуэн, Афия Беннетт, Морган Аллен, Джеффри Мен, Джеймс Там, Аманда Сайфред, Джонатан Поттс, Рэйчел Робертс, Тойин Ишола, Себастьян Пижотт
Studio: K5 Film, K5 International, K5 Media Group
Rating: 135
Long Description: Идеальное общество будущего: режим тотального надзора, отсутствие личной жизни, приватных территорий и гражданских прав. Казалось бы, в полностью контролируемом государстве нет места ошибкам и правонарушениям. Но однажды детектив Сол Фриленд знакомится с девушкой, которая не числится в базах данных. Перед копом приоткрывается дверь преступного мира новой эры...
Description: Идеальное общество будущего: режим тотального надзора, отсутствие личной жизни, приватных территорий и гражданских прав. Казалось бы, в полностью контролируемом государстве нет места ошибкам и правонарушениям. Но однажды детектив Сол Фриленд знакомится с девушкой, которая не числится в базах данных. Перед копом приоткрывается дверь преступного мира новой эры...
Release Date: 2018-05-03T08:00:00Z
Genre: Sci-Fi & Fantasy
Artist: Эндрю Никкол
Name: Анон
General
Complete name : /Users/imac/HandBrake/Anon.WEB-DL.720p.m4v
Format : MPEG-4
Codec ID : M4V
File size : 3.48 GiB
Duration : 1h 36mn
Overall bit rate mode : Variable
Overall bit rate : 5 183 Kbps
Movie name : Анон
Performer : Эндрю Никкол
Director : Эндрю Никкол
Actor : Клайв Оуэн / Афия Беннетт / Морган Аллен / Джеффри Мен / Джеймс Там / Аманда Сайфред / Джонатан Поттс / Рэйчел Робертс / Тойин Ишола / Себастьян Пижотт
Screenplay by : Эндрю Никкол
Producer : Ода Шефер / Дэниэл Баур / Дэниэл Бекерма
Production studio : K5 Film, K5 International, K5 Media Group
Genre : Sci-Fi & Fantasy
ContentType : Short Film
Description : Идеальное общество будущего: режим тотального надзора, отсутствие личной жизни, приватных территорий и гражданских прав. Казалось бы, в полностью контролируемом государстве нет места ошибкам и правонарушениям. Но однажды детектив Сол Фриленд знакомится с девушкой, которая не числится в базах данных. Перед копом приоткрывается дверь преступного мира новой эры...
Recorded date : UTC 2018-05-03 08:00:00
Encoded date : UTC 2018-05-25 10:08:16
Tagged date : UTC 2018-05-25 10:11:09
Copyright : © 2018 Парадиз
Cover : Yes
Rating : None
Title/Sort : Анон
LongDescription : Идеальное общество будущего: режим тотального надзора, отсутствие личной жизни, приватных территорий и гражданских прав. Казалось бы, в полностью контролируемом государстве нет места ошибкам и правонарушениям. Но однажды детектив Сол Фриленд знакомится с девушкой, которая не числится в базах данных. Перед копом приоткрывается дверь преступного мира новой эры...
HDVideo : Yes
AppleStoreCatalogID : 1380680996
Vendor : Apple:vendor_id:2018-979121
ContentRating : ru-movie|16+|375|

Video #1
ID : 1
Format : AVC
Format/Info : Advanced Video Codec
Format profile : [email protected]
Format settings, CABAC : No
Format settings, ReFrames : 2 frames
Codec ID : avc1
Codec ID/Info : Advanced Video Coding
Duration : 1h 35mn
Bit rate : 4 108 Kbps
Width : 960 pixels
Height : 692 pixels
Display aspect ratio : 1.85:1
Frame rate : 25.000 fps
Color space : YUV
Chroma subsampling : 4:2:0
Bit depth : 8 bits
Scan type : Progressive
Bits/(Pixel*Frame) : 0.247
Stream size : 2.75 GiB (79%)
Title : Main Program
Language : English
Encoded date : UTC 2018-05-25 10:08:16
Tagged date : UTC 2018-05-25 10:09:43
Color range : Limited
Color primaries : BT.709
Transfer characteristics : BT.709
Matrix coefficients : BT.709

Video #2
ID : 10
Format : JPEG
Codec ID : jpeg
Duration : 1h 35mn
Bit rate mode : Variable
Bit rate : 490 bps
Width : 640 pixels
Height : 346 pixels
Display aspect ratio : 1.85:1
Frame rate mode : Variable
Frame rate : 0.002 fps
Minimum frame rate : 0.002 fps
Maximum frame rate : 0.003 fps
Color space : YUV
Chroma subsampling : 4:2:0
Bit depth : 8 bits
Compression mode : Lossy
Bits/(Pixel*Frame) : 1.106
Stream size : 419 KiB (0%)
Title : Chapter Images
Language : English
Encoded date : UTC 2018-05-25 10:09:46
Tagged date : UTC 2018-05-25 10:09:47

Audio #1
ID : 2
Format : AAC
Format/Info : Advanced Audio Codec
Format profile : LC
Codec ID : 40
Duration : 1h 35mn
Source duration : 1h 35mn
Bit rate mode : Variable
Bit rate : 158 Kbps
Maximum bit rate : 244 Kbps
Channel(s) : 2 channels
Channel positions : Front: L R
Sampling rate : 48.0 KHz
Compression mode : Lossy
Stream size : 108 MiB (3%)
Source stream size : 108 MiB (3%)
Title : Russian Stereo
Language : Russian
Encoded date : UTC 2018-05-25 10:08:17
Tagged date : UTC 2018-05-25 10:08:24

Audio #2
ID : 3
Format : AAC
Format/Info : Advanced Audio Codec
Format profile : LC
Codec ID : 40
Duration : 1h 36mn
Source duration : 1h 36mn
Bit rate mode : Variable
Bit rate : 155 Kbps
Maximum bit rate : 261 Kbps
Channel(s) : 2 channels
Channel positions : Front: L R
Sampling rate : 48.0 KHz
Compression mode : Lossy
Stream size : 107 MiB (3%)
Source stream size : 107 MiB (3%)
Title : English Stereo
Language : English
Encoded date : UTC 2018-05-25 10:08:17
Tagged date : UTC 2018-05-25 10:08:24

Audio #3
ID : 4
Format : AC-3
Format/Info : Audio Coding 3
Mode extension : CM (complete main)
Format settings, Endianness : Big
Codec ID : ac-3
Duration : 1h 35mn
Bit rate mode : Constant
Bit rate : 384 Kbps
Channel(s) : 6 channels
Channel positions : Front: L C R, Side: L R, LFE
Sampling rate : 48.0 KHz
Bit depth : 16 bits
Compression mode : Lossy
Stream size : 263 MiB (7%)
Title : Russian DD 5.1
Language : Russian
Encoded date : UTC 2018-05-25 10:08:17
Tagged date : UTC 2018-05-25 10:08:24

Audio #4
ID : 5
Format : AC-3
Format/Info : Audio Coding 3
Mode extension : CM (complete main)
Format settings, Endianness : Big
Codec ID : ac-3
Duration : 1h 36mn
Bit rate mode : Constant
Bit rate : 384 Kbps
Channel(s) : 6 channels
Channel positions : Front: L C R, Side: L R, LFE
Sampling rate : 48.0 KHz
Bit depth : 16 bits
Compression mode : Lossy
Stream size : 264 MiB (7%)
Title : English DD 5.1
Language : English
Encoded date : UTC 2018-05-25 10:08:17
Tagged date : UTC 2018-05-25 10:08:24

Text #1
ID : 6
Format : Timed Text
Muxing mode : sbtl
Codec ID : tx3g
Duration : 25mn 19s
Bit rate : 0 bps
Stream size : 2.00 Bytes (0%)
Title : Russian forced
Language : Russian
Encoded date : UTC 2018-05-25 10:08:17
Tagged date : UTC 2018-05-25 10:08:17

Text #2
ID : 7
Format : Timed Text
Muxing mode : sbtl
Codec ID : tx3g
Duration : 1h 27mn
Bit rate mode : Variable
Bit rate : 76 bps
Stream size : 48.9 KiB (0%)
Title : Russian full
Language : Russian
Encoded date : UTC 2018-05-25 10:08:17
Tagged date : UTC 2018-05-25 10:08:24

Text #3
ID : 8
Format : Timed Text
Muxing mode : sbtl
Codec ID : tx3g
Duration : 1h 27mn
Bit rate mode : Variable
Bit rate : 44 bps
Stream size : 28.5 KiB (0%)
Title : English full
Language : English
Encoded date : UTC 2018-05-25 10:08:17
Tagged date : UTC 2018-05-25 10:08:24

Menu #1
00:00:00.000 : 1
00:08:42.240 : 2
00:13:57.480 : 3
00:21:13.960 : 4
00:28:03.160 : 5
00:33:45.199 : 6
00:39:19.879 : 7
00:45:09.918 : 8
00:50:54.638 : 9
00:57:42.837 : 10
01:05:00.396 : 11
01:10:57.395 : 12
01:17:53.235 : 13
01:25:13.235 : 14

Menu #2
ID : 9
Codec ID : text
Duration : 1h 35mn
Language : English
Encoded date : UTC 2018-05-25 10:09:43
Tagged date : UTC 2018-05-25 10:09:43
00:00:00.000 : 1
00:08:42.240 : 2
00:13:57.480 : 3
00:21:13.960 : 4
00:28:03.160 : 5
00:33:45.199 : 6
00:39:19.879 : 7
00:45:09.918 : 8
00:50:54.638 : 9
00:57:42.837 : 10
01:05:00.396 : 11
01:10:57.395 : 12
01:17:53.235 : 13
01:25:13.235 : 14
Bit rate mode : VBR

Релиз подготовлен для просмотра на Apple TV, iPad, iPhone, iPod Touch.
Для просмотра данного релиза на компьютере с ОС Windows рекомендуется использовать VLC media player

Трекер:  [ 25-Май-2018 13:36 ]

  

Скачать .torrent

Размер .torrent файла 35 KB


Размер: 3.48 GB
Хэш (hash) релиза: 9766615ea25ac4f6b81e7aea3dcabda63a8c48fb

Еще никто не оставлял запись к записи скачать торрент Анон Anon . Будь первым!

!Обратная связь