Sonnell Dadral | Coco 3D BluRay 3D 1080p | bulhandang streaming

Скачать через торрент [MULT] Три богатыря и принцесса Египта бесплатно русская версия torrent активатор

Статистика раздачи
Размер:  1.19 GB   |    Зарегистрирован:  1 месяц   |    .torrent скачан:  24 раза   |   
Раздают:  1  
   
загрузка...
 
Автор Сообщение

Galfimbul

avatar Galfimbul



Три богатыря и принцесса Египта

Год выпуска: 2017
Страна: Россия
Жанр: мультфильм
Продолжительность: 01:11:45
Перевод: не требуется
Субтитры: нет
Режиссер: Константин Феоктистов
Роли озвучивали: Олег Куликович, Валерий Соловьев, Дмитрий Быковский-Ромашов, Сергей Маковецкий, Дмитрий Высоцкий, Александр Быковский, Елена Шульман, Лия Медведева, Мария Цветкова-Овсянникова, Анатолий Петров .
Описание: В новогоднюю ночь, в то время, как Князь готовится произнести торжественную речь, а Юлий распаковывает подарки и следит за приготовлением праздничного стола, богатыри едут в гости к Алёше и встречают там странного товарища по имени Дурило. Оказывается, это тринадцатый месяц, который никому особенно не нужен, и который пытается осуществить своё заветное желание — стать самым главным месяцем в году. Только и надо ему, что притвориться Дедом Морозом, показать доверчивому Алёше пару фокусов, подружиться с богатырями и оказаться в Египте — стране фараонов и древних пирамид. А дальше — пирамиды, заклинание, Древний огонь — и дело в шляпе! Но не так-то просто осуществить своё коварное желание, когда на пути у тебя встают не только три богатыря, но и их жёны, Князь и Юлий, Змей Горыныч и Дед Мороз и даже — сама принцесса Нефертити!
Релиз группы

Качество: BDRip / рип с Blu-ray disc 1080p [RUS]
Формат: MP4
Видео кодек: H.264
Аудио кодек: AAC
Видео: 1280x720 AR:1.78 2250 kbps 24 fps
Аудио №1: 2ch 48 kHz 128 kbps
avs [info]: 1280x720p 1:1 @ 24/1 fps (cfr)
x264 [info]: using SAR=1/1
x264 [info]: using cpu capabilities: MMX2 SSE2Fast SSSE3 SSE4.2 AVX FMA3 BMI2 AVX2
x264 [info]: profile High, level 4.1

x264 [info]: frame I:1414 Avg QP:15.32 size: 90661
x264 [info]: frame P:30765 Avg QP:19.81 size: 19501
x264 [info]: frame B:71158 Avg QP:20.65 size: 6771
x264 [info]: consecutive B-frames: 7.4% 6.1% 12.5% 45.4% 16.3% 8.2% 4.1%
x264 [info]: mb I I16..4: 7.7% 49.2% 43.1%
x264 [info]: mb P I16..4: 1.4% 5.0% 3.0% P16..4: 19.6% 17.3% 7.1% 0.0% 0.0% skip:46.7%
x264 [info]: mb B I16..4: 0.3% 0.7% 0.3% B16..8: 17.9% 8.6% 2.5% direct: 2.1% skip:67.6% L0:47.4% L1:44.6% BI: 8.0%
x264 [info]: 8x8 transform intra:52.1% inter:37.4%
x264 [info]: direct mvs spatial:94.3% temporal:5.7%
x264 [info]: coded y,uvDC,uvAC intra: 50.7% 63.1% 44.9% inter: 8.2% 8.4% 4.5%
x264 [info]: i16 v,h,dc,p: 16% 30% 8% 45%
x264 [info]: i8 v,h,dc,ddl,ddr,vr,hd,vl,hu: 13% 13% 22% 7% 8% 8% 9% 8% 13%
x264 [info]: i4 v,h,dc,ddl,ddr,vr,hd,vl,hu: 16% 14% 19% 7% 9% 8% 9% 7% 11%
x264 [info]: i8c dc,h,v,p: 33% 38% 17% 12%
x264 [info]: Weighted P-Frames: Y:3.6% UV:2.9%
x264 [info]: ref P L0: 54.5% 5.3% 17.2% 7.3% 5.2% 4.2% 3.4% 2.5% 0.4% 0.0%
x264 [info]: ref B L0: 70.0% 12.0% 7.9% 3.6% 3.8% 1.8% 0.9%
x264 [info]: ref B L1: 94.5% 5.5%
x264 [info]: kb/s:2248.12

encoded 103337 frames, 12.85 fps, 2248.12 kb/s
ОбщееПолное имя : D:\Torrents\Tri bogaturya i princessa Egipta.2017.BDRip.x264.1280x.rip by Frost O.S.mp4Формат : MPEG-4Профиль формата : Base MediaИдентификатор кодека : isom (isom)Размер файла : 1,19 ГбайтПродолжительность : 1 ч. 11 м.Режим общего битрейта : ПеременныйОбщий поток : 2380 Кбит/секДата кодирования : UTC 2018-05-24 16:47:18Дата пометки : UTC 2018-05-24 16:47:18Программа кодирования : My MP4Box GUI 0.6.0.6

ВидеоИдентификатор : 1Формат : AVCФормат/Информация : Advanced Video CodecПрофиль формата : [email protected]Настройки формата : CABAC / 8 Ref FramesПараметр CABAC формата : ДаПараметр RefFrames формата : 8 кадровИдентификатор кодека : avc1Идентификатор кодека/Информация : Advanced Video CodingПродолжительность : 1 ч. 11 м.Битрейт : 2250 Кбит/секМаксимальный битрейт : 9996 Кбит/секШирина : 1280 пикселейВысота : 720 пикселейСоотношение сторон : 16:9Режим частоты кадров : ПостоянныйЧастота кадров : 24,000 кадра/секЦветовое пространство : YUVСубдискретизация насыщенности : 4:2:0Битовая глубина : 8 битТип развёртки : ПрогрессивнаяБит/(Пиксели*Кадры) : 0.102Размер потока : 1,13 Гбайт (94%)Заголовок : Tri bogaturya i princessa Egipta.2017.BDRip.x264.1280x.rip by Frost O.SБиблиотека кодирования : x264 core 152 r2851 ba24899Настройки программы : cabac=1 / ref=8 / deblock=1:-2:-2 / analyse=0x3:0x113 / me=umh / subme=11 / psy=1 / psy_rd=1.00:0.00 / mixed_ref=1 / me_range=32 / chroma_me=1 / trellis=2 / 8x8dct=1 / cqm=0 / deadzone=21,11 / fast_pskip=0 / chroma_qp_offset=-2 / threads=6 / lookahead_threads=1 / sliced_threads=0 / nr=0 / decimate=0 / interlaced=0 / bluray_compat=0 / constrained_intra=0 / bframes=6 / b_pyramid=2 / b_adapt=2 / b_bias=0 / direct=3 / weightb=1 / open_gop=0 / weightp=2 / keyint=250 / keyint_min=24 / scenecut=40 / intra_refresh=0 / rc=2pass / mbtree=0 / bitrate=2250 / ratetol=1.0 / qcomp=0.65 / qpmin=0 / qpmax=69 / qpstep=4 / cplxblur=20.0 / qblur=0.5 / ip_ratio=1.40 / pb_ratio=1.30 / aq=2:0.90Дата кодирования : UTC 2018-05-24 16:30:07Дата пометки : UTC 2018-05-24 16:47:20Цветовой диапазон : LimitedОсновные цвета : BT.709Характеристики трансфера : BT.709Коэффициенты матрицы : BT.709

АудиоИдентификатор : 2Формат : AACФормат/Информация : Advanced Audio CodecПрофиль формата : LCИдентификатор кодека : mp4a-40-2Продолжительность : 1 ч. 11 м.Вид битрейта : ПеременныйБитрейт : 128 Кбит/секМаксимальный битрейт : 136 Кбит/секКаналы : 2 каналаРасположение каналов : Front: L RЧастота : 48,0 КГцЧастота кадров : 46,875 кадров/сек (1024 SPF)Метод сжатия : С потерямиРазмер потока : 65,7 Мбайт (5%)Дата кодирования : UTC 2018-05-24 16:47:19Дата пометки : UTC 2018-05-24 16:47:20


Трекер:  [ 24-Май-2018 20:06 ]

  

Скачать .torrent

Размер .torrent файла 12 KB


Размер: 1.19 GB
Хэш (hash) релиза: 2246520b64025dc4fa54820730fd05c92de2ba8c

Еще никто не оставлял запись к записи скачать торрент [MULT] Три богатыря и принцесса Египта . Будь первым!

!Обратная связь