Comments: 0 | Добавить comprarseguidoresreais.com в поисковую строку | Of Lice and Me season 03 episode 03

Скачать через торрент [MULT] Миньоны: Мини-фильмы бесплатно русская версия torrent активатор

Статистика раздачи
Размер:  55 MB   |    Зарегистрирован:  1 месяц 30 дней   |    .torrent скачан:  13 раз   |   
Раздают:  1  
   
загрузка...
 
Автор Сообщение

Galfimbul

avatar Galfimbul


Миньоны: Мини-фильмы / Minions: Mini-Movies

Описание:
Жёлтые коротышки, служат армией и помощниками для Грю. Хотя и понимают человеческую речь, говорить по-человечески не умеют, но могут произносить отдельные слова, но чаще они общаются на своём языке между собой. Глуповатые, но очень полезные. Интересно, что у некоторых миньонов только один глаз. Замечательное дополнение к известному мультфильму "Гадкия я 2"

Паника в почтовом отделении / Panic in the Mailroom

Год выпуска: 2013
Страна: США
Жанр: короткометражка, мультфильм
Продолжительность: 00:04:14
Перевод: отсутствует
Субтитры: нет
Режиссеры: Фабрис Жубер / Fabrice Joubert, Марк О’Харе / Mark O'Hare
Роли озвучивали: Стив Карелл, Пьер Коффан .

Релиз группы

Качество: HDRip / рип с BDRip 720p
Формат: MP4
Видео кодек: XviD
Аудио кодек: AAC
Видео: 480x256 AR:1.88 491 kbps 23.976 fps
Аудио: 2ch 48 kHz 128 kbps
<div class="sp-wrap">
<div class="sp-head folded">ТХ/MediaInfo</div>
<div class="sp-body">

ОбщееПолное имя : D:\Torrents\Minions Mini-Movies.2013.HDRip.XviD.480x\Panic in the Mailroom.2013.HDRip.XviD.480x.rip by Frost O.S.mp4Формат : MPEG-4Профиль формата : Base MediaИдентификатор кодека : isom (isom)Размер файла : 18,9 МбайтПродолжительность : 4 м. 14 с.Режим общего битрейта : ПеременныйОбщий поток : 623 Кбит/секДата кодирования : UTC 2018-05-24 11:08:28Дата пометки : UTC 2018-05-24 11:08:28Программа кодирования : My MP4Box GUI 0.6.0.6

ВидеоИдентификатор : 1Формат : MPEG-4 VisualПрофиль формата : Advanced [email protected]Настройки формата : BVOP / Custom MatrixПараметр BVOP формата : ДаПараметр QPel формата : НетПараметр GMC формата : Без точки переходаПараметр матрицы формата : ВыборочнаяИдентификатор кодека : mp4v-20Продолжительность : 4 м. 14 с.Вид битрейта : ПеременныйБитрейт : 491 Кбит/секМаксимальный битрейт : 2051 Кбит/секШирина : 480 пикселейВысота : 256 пикселейСоотношение сторон : 1,85:1Режим частоты кадров : ПостоянныйЧастота кадров : 23,976 (24000/1001) кадра/секЦветовое пространство : YUVСубдискретизация насыщенности : 4:2:0Битовая глубина : 8 битТип развёртки : ПрогрессивнаяМетод сжатия : С потерямиБит/(Пиксели*Кадры) : 0.167Размер потока : 14,9 Мбайт (79%)Заголовок : Panic in the Mailroom.2013.HDRip.XviD.480x.rip by Frost O.SБиблиотека кодирования : XviD 1.2.1 (UTC 2008-12-04)Дата кодирования : UTC 2018-05-24 11:08:28Дата пометки : UTC 2018-05-24 11:08:28

АудиоИдентификатор : 2Формат : AACФормат/Информация : Advanced Audio CodecПрофиль формата : LCИдентификатор кодека : mp4a-40-2Продолжительность : 4 м. 14 с.Вид битрейта : ПеременныйБитрейт : 128 Кбит/секМаксимальный битрейт : 132 Кбит/секКаналы : 2 каналаРасположение каналов : Front: L RЧастота : 48,0 КГцЧастота кадров : 46,875 кадров/сек (1024 SPF)Метод сжатия : С потерямиРазмер потока : 3,88 Мбайт (21%)Дата кодирования : UTC 2018-05-24 11:08:28Дата пометки : UTC 2018-05-24 11:08:28
</div>
</div>

Щенок / Puppy

Год выпуска: 2013
Страна: США
Жанр: короткометражка, мультфильм
Продолжительность: 00:04:33
Перевод: отсутствует
Субтитры: нет
Режиссеры: Ярроу Чейни / Yarrow Cheney, Брюно Деквиэ / Bruno Dequier
Роли озвучивали: Стив Карелл, Пьер Коффан .
Релиз группы

Качество: HDRip / рип с BDRip 720p
Формат: MP4
Видео кодек: XviD
Аудио кодек: AAC
Видео: 480x256 AR:1.88 420 kbps 23.976 fps
Аудио: 2ch 48 kHz 128 kbps
<div class="sp-wrap">
<div class="sp-head folded">ТХ/MediaInfo</div>
<div class="sp-body">

ОбщееПолное имя : D:\Torrents\Minions Mini-Movies.2013.HDRip.XviD.480x\Puppy.2013.HDRip.XviD.480x.rip by Frost O.S.mp4Формат : MPEG-4Профиль формата : Base MediaИдентификатор кодека : isom (isom)Размер файла : 18,0 МбайтПродолжительность : 4 м. 33 с.Режим общего битрейта : ПеременныйОбщий поток : 551 Кбит/секДата кодирования : UTC 2018-05-24 11:09:11Дата пометки : UTC 2018-05-24 11:09:11Программа кодирования : My MP4Box GUI 0.6.0.6

ВидеоИдентификатор : 1Формат : MPEG-4 VisualПрофиль формата : Advanced [email protected]Настройки формата : BVOP / Custom MatrixПараметр BVOP формата : ДаПараметр QPel формата : НетПараметр GMC формата : Без точки переходаПараметр матрицы формата : ВыборочнаяИдентификатор кодека : mp4v-20Продолжительность : 4 м. 33 с.Вид битрейта : ПеременныйБитрейт : 420 Кбит/секМаксимальный битрейт : 2659 Кбит/секШирина : 480 пикселейВысота : 256 пикселейСоотношение сторон : 1,85:1Режим частоты кадров : ПеременныйЧастота кадров : 23,976 (23976/1000) кадра/секМинимальная частота кадров : 11,988 кадров/секМаксимальная частота кадров : 23,976 кадра/секЧастота кадров в оригинале : 23,976 (24000/1001) кадра/секЦветовое пространство : YUVСубдискретизация насыщенности : 4:2:0Битовая глубина : 8 битТип развёртки : ПрогрессивнаяМетод сжатия : С потерямиБит/(Пиксели*Кадры) : 0.142Размер потока : 13,7 Мбайт (76%)Заголовок : Puppy.2013.HDRip.XviD.480x.rip by Frost O.SБиблиотека кодирования : XviD 1.2.1 (UTC 2008-12-04)Дата кодирования : UTC 2018-05-24 11:09:11Дата пометки : UTC 2018-05-24 11:09:12

АудиоИдентификатор : 2Формат : AACФормат/Информация : Advanced Audio CodecПрофиль формата : LCИдентификатор кодека : mp4a-40-2Продолжительность : 4 м. 33 с.Вид битрейта : ПеременныйБитрейт : 128 Кбит/секМаксимальный битрейт : 132 Кбит/секКаналы : 2 каналаРасположение каналов : Front: L RЧастота : 48,0 КГцЧастота кадров : 46,875 кадров/сек (1024 SPF)Метод сжатия : С потерямиРазмер потока : 4,18 Мбайт (23%)Дата кодирования : UTC 2018-05-24 11:09:12Дата пометки : UTC 2018-05-24 11:09:12
</div>
</div>

Страховочные колеса / Обучение вождению / Training Wheels

Год выпуска: 2013
Страна: США
Жанр: короткометражка, мультфильм
Продолжительность: 00:04:12
Перевод: субтитры
Субтитры: русские (полные), английские (полные)
Режиссеры: Эрик Фавела / Eric Favela, Регис Шуллер / Régis Schuller
Роли озвучивали: Миранда Косгров, Элси Фишер, Дэна Гайер, Дэйв Розенбаум, Стив Карелл, Регис Шуллер, Пьер Коффан .
Релиз группы

Качество: HDRip / рип с BDRip 720p
Формат: MP4
Видео кодек: XviD
Аудио кодек: AAC
Видео: 480x256 AR:1.88 470 kbps 23.976 fps
Аудио: 2ch 48 kHz 128 kbps
<div class="sp-wrap">
<div class="sp-head folded">ТХ/MediaInfo</div>
<div class="sp-body">

ОбщееПолное имя : D:\Torrents\Minions Mini-Movies.2013.HDRip.XviD.480x\Training Wheels.2013.HDRip.XviD.480x.rip by Frost O.S.mp4Формат : MPEG-4Профиль формата : Base MediaИдентификатор кодека : isom (isom)Размер файла : 18,1 МбайтПродолжительность : 4 м. 12 с.Режим общего битрейта : ПеременныйОбщий поток : 601 Кбит/секДата кодирования : UTC 2018-05-24 11:10:23Дата пометки : UTC 2018-05-24 11:10:23Программа кодирования : My MP4Box GUI 0.6.0.6

ВидеоИдентификатор : 1Формат : MPEG-4 VisualПрофиль формата : Advanced [email protected]Настройки формата : BVOP / Custom MatrixПараметр BVOP формата : ДаПараметр QPel формата : НетПараметр GMC формата : Без точки переходаПараметр матрицы формата : ВыборочнаяИдентификатор кодека : mp4v-20Продолжительность : 4 м. 12 с.Вид битрейта : ПеременныйБитрейт : 470 Кбит/секМаксимальный битрейт : 1174 Кбит/секШирина : 480 пикселейВысота : 256 пикселейСоотношение сторон : 1,85:1Режим частоты кадров : ПостоянныйЧастота кадров : 23,976 (24000/1001) кадра/секЦветовое пространство : YUVСубдискретизация насыщенности : 4:2:0Битовая глубина : 8 битТип развёртки : ПрогрессивнаяМетод сжатия : С потерямиБит/(Пиксели*Кадры) : 0.159Размер потока : 14,1 Мбайт (78%)Заголовок : Training Wheels.2013.HDRip.XviD.480x.rip by Frost O.SБиблиотека кодирования : XviD 1.2.1 (UTC 2008-12-04)Дата кодирования : UTC 2018-05-24 11:10:23Дата пометки : UTC 2018-05-24 11:10:23

АудиоИдентификатор : 2Формат : AACФормат/Информация : Advanced Audio CodecПрофиль формата : LCИдентификатор кодека : mp4a-40-2Продолжительность : 4 м. 12 с.Вид битрейта : ПеременныйБитрейт : 128 Кбит/секМаксимальный битрейт : 134 Кбит/секКаналы : 2 каналаРасположение каналов : Front: L RЧастота : 48,0 КГцЧастота кадров : 46,875 кадров/сек (1024 SPF)Метод сжатия : С потерямиРазмер потока : 3,86 Мбайт (21%)Дата кодирования : UTC 2018-05-24 11:10:23Дата пометки : UTC 2018-05-24 11:10:23

Текст #1Идентификатор : 3Формат : Timed TextИдентификатор кодека : tx3gПродолжительность : 3 м. 18 с.Вид битрейта : ПеременныйБитрейт : 44 бит/секРазмер потока : 1,08 Кбайт (0%)Заголовок : Russian / FullForced : НетДата кодирования : UTC 2018-05-24 11:10:23Дата пометки : UTC 2018-05-24 11:10:23

Текст #2Идентификатор : 4Формат : Timed TextИдентификатор кодека : tx3gПродолжительность : 3 м. 33 с.Вид битрейта : ПеременныйБитрейт : 59 бит/секРазмер потока : 1,54 Кбайт (0%)Заголовок : English / FullForced : НетДата кодирования : UTC 2018-05-24 11:10:23Дата пометки : UTC 2018-05-24 11:10:23
</div>
</div>

Трекер:  [ 24-Май-2018 14:36 ]

  

Скачать .torrent

Размер .torrent файла 18 KB


Размер: 55 MB
Хэш (hash) релиза: b17357155905478ca0fcc12167202b4c2b3a3573

Торренты, похожие на [MULT] Миньоны: Мини-фильмы скачать торрент

Форум Название Автор Размер S L Добавлен
Видео (Фильмы/Клипы) ·· [MULT] Миньоны: Мини-фильмы (Преображение дома, Ознакомительный день, Банан) / Minions: Mini-Movies (Home makeover, Orientation Day, Banana) (Кайл Балда / Kyle Balda) [2010, короткометражка, мультфильм, HDRip] [3GP, 320x] Dub Galfimbul 3926600237 MB 0 0 1527167200

16:06

24-Май-18

Видео (Фильмы/Клипы) ·· [MULT] Миньоны: Мини-фильмы (Паника в почтовом отделении, Щенок, Страховочные колеса) / Minions: Mini-Movies (Panic in the Mailroom, Puppy, Training Wheels) (Фабрис Жубер / Fabrice Joubert [2013, мультфильм, HDRip] [3GP, 320x] Sub (rus) Galfimbul 4209712840 MB 0 0 1527167192

16:06

24-Май-18

Видео (Фильмы/Клипы) ·· [MULT] Миньоны: Мини-фильмы (Неугомонный Бинки Нельсон, Соревнование, Кроминьонцы) / Minions: Mini-Movies (Binky Nelson unpacified, Competition, Кроминьонцы) (Фабрис Жубер / Fabrice Joubert) [2015, короткометражка, мультфильм, HDRip] [3GP, 320x] Dub Galfimbul 4134877139 MB 0 0 1527167184

16:06

24-Май-18

Видео (Фильмы/Клипы) ·· [MULT] Миньоны: Мини-фильмы (Преображение дома, Ознакомительный день, Банан) / Minions: Mini-Movies (Home makeover, Orientation Day, Banana) (Кайл Балда / Kyle Balda) [2010, короткометражка, мультфильм, HDRip] [MP4, 480x] Dub Galfimbul 5325859751 MB 0 0 1527161803

14:36

24-Май-18

Видео (Фильмы/Клипы) ·· [MULT] Миньоны: Мини-фильмы (Неугомонный Бинки Нельсон, Соревнование, Кроминьонцы) / Minions: Mini-Movies (Binky Nelson unpacified, Competition, Кроминьонцы) (Фабрис Жубер / Fabrice Joubert) [2015, короткометражка, мультфильм, HDRip] [MP4, 480x] Dub Galfimbul 5828283856 MB 0 0 1527161787

14:36

24-Май-18

Видео (Фильмы/Клипы) ·· [MULT] Миньоны: Мини-фильмы (Преображение дома, Ознакомительный день, Банан) / Minions: Mini-Movies (Home makeover, Orientation Day, Banana) (Кайл Балда / Kyle Balda) [2010, мультфильм, HDRip] [MP4, 960x] Galfimbul 135349057129 MB 0 0 1527150990

11:36

24-Май-18

Видео (Фильмы/Клипы) ·· [MULT] Миньоны: Мини-фильмы (Паника в почтовом отделении, Щенок, Страховочные колеса) / Minions: Mini-Movies (Panic in the Mailroom, Puppy, Training Wheels) (Фабрис Жубер / Fabrice Joubert [2013, мультфильм, HDRip] [MP4, 960x] Sub (rus) Galfimbul 154200141147 MB 0 0 1527150981

11:36

24-Май-18

Видео (Фильмы/Клипы) ·· [MULT] Миньоны: Мини-фильмы (Неугомонный Бинки Нельсон, Соревнование, Кроминьонцы) / Minions: Mini-Movies (Binky Nelson unpacified, Competition, CroMinions) (Фабрис Жубер / Fabrice Joubert, Брайан Линч) [2015, мультфильм, HDRip] [MP4, 960x] Dub Galfimbul 130200556124 MB 0 0 1461082943

19:22

19-Апр-16

Еще никто не оставлял запись к записи скачать торрент [MULT] Миньоны: Мини-фильмы . Будь первым!

!Обратная связь