Ben 10: Omniverse | Ben 10: Ultimate Alien | Benjamin Blümchen

Скачать через торрент музыку Super Mario Odyssey Original Sound Track бесплатно без регистрации torrent

Статистика раздачи
Размер:  1.38 GB   |    Зарегистрирован:  29 дней   |    .torrent скачан:  31 раз   |   
Раздают:  1  
   
загрузка...
 
Автор Сообщение

Galfimbul

avatar Galfimbul


Super Mario Odyssey Original Sound Track

Жанр: Score
Композитор: Various
Год выпуска диска: 2018
Производитель диска: Japan
Издатель (лейбл): Being Group
Номер по каталогу: JBCZ 9075~9078
Аудиокодек: FLAC (*.flac)
Тип рипа: tracks+.cue
Битрейт аудио: lossless
Источник: собственный рип
Наличие сканов в содержимом раздачи: нет
Треклист:
01. Naoto Kubo - Title [1:22]
02. Naoto Kubo - Opening ~In the Skies Above Peach's Castle~ [1:24]
03. Shiho Fujii - Encounter with Cappy [1:22]
04. Shiho Fujii - Bonneton [2:44]
05. Shiho Fujii - Top-Hat Tower [2:12]
06. Naoto Kubo & Shigetoshi Gohara - Broodals Confrontation [0:46]
07. Naoto Kubo - Broodals Battle [1:59]
08. Naoto Kubo & Shigetoshi Gohara - Beginning of the Adventure [0:15]
09. Naoto Kubo - Fossil Falls [4:09]
10. Naoto Kubo - YOU GOT A MOON! 1 [0:10]
11. Naoto Kubo - Capturing Tyrannosaurus! [1:42]
12. Naoto Kubo - Madame Broode Battle [2:09]
13. Naoto Kubo - Mario, World Traveler ~The Odyssey's First Takeoff~ [0:47]
14. Naoto Kubo - Scenario Introduction 1 [0:14]
15. Naoto Kubo - Tostarena Ruins [3:55]
16. Naoto Kubo - Inside the Inverted Pyramid [2:23]
17. Naoto Kubo - Tostarena Night [2:17]
18. Naoto Kubo - Riding the Jaxi [2:01]
19. Naoto Kubo - Tostarena Battle [2:44]
20. Naoto Kubo - Tostarena Town [1:57]
21. Naoto Kubo - YOU GOT A MOON! 2 [0:07]
22. Koji Kondo - Steam Gardens [3:44]
23. Koji Kondo - Steam Gardens Sherm [2:08]
24. Koji Kondo - Torkdrift Battle [3:28]
25. Shiho Fujii - Lake Lamode Underwater Passage [2:23]
26. Shiho Fujii - Lake Lamode [3:23]
27. Shiho Fujii - Lake Lamode Above Ground [1:54]
28. Naoto Kubo - Found Bowser's Airship! [0:36]
29. Naoto Kubo - Bowser Appearance [0:57]
30. Shiho Fujii - Bowser Battle 1 ~Nimbus Arena Showdown~ [2:50]
31. Naoto Kubo - Bowser Bombardment ~ The Odyssey Crashes [0:35]
01. Koji Kondo - Cappy Gets Taken Away! [1:37]
02. Koji Kondo - Forgotten Isle [3:17]
03. Naoto Kubo - Scenario Introduction 2 [0:11]
04. Naoto Kubo - New Donk City Night 1 [1:39]
05. Naoto Kubo - New Donk City Night 2 ~City Hall~ [2:20]
06. Naoto Kubo - Mechawiggler Battle [3:15]
07. Naoto Kubo - YOU GOT A GRAND MOON! [0:18]
08. Naoto Kubo - New Donk City [3:22]
09. Naoto Kubo & Koji Kondo - Band Performance (Super Mario Brothers Above Ground) [2:17]
10. Naoto Kubo & Koji Kondo - Poolside Rest [2:53]
11. Naoto Kubo & Koji Kondo - Underground Power Plant [2:12]
12. Naoto Kubo - Jump Up, Super Star! NDC Festival Edition [4:20]
13. Naoto Kubo - Traditional Festival Ends! [0:16]
14. Shiho Fujii - Shiveria Town [2:45]
15. Naoto Kubo - Ice Cave [2:02]
16. Shiho Fujii - Snowline Circuit [1:30]
17. Shiho Fujii - Bound Bowl GP [1:33]
18. Shiho Fujii - Race Result [0:38]
19. Naoto Kubo - Bubblaine [4:05]
20. Naoto Kubo - Bubblaine Underwater [2:26]
21. Naoto Kubo - Mollusque-Lanceur Battle [3:29]
22. Naoto Kubo - Scenario Introduction 3 [0:11]
23. Shiho Fujii - Mount Volbono [3:33]
24. Shiho Fujii - Peronza Plaza [3:07]
25. Shiho Fujii - Cookatiel Battle [2:58]
26. Naoto Kubo - Ruined Dragon Appears [0:53]
27. Shiho Fujii - Ruined Dragon Battle [2:58]
28. Koji Kondo - Bowser Castle [3:33]
29. Koji Kondo - Bowser Castle Courtyard [2:57]
30. Naoto Kubo - Bowser Flies to the Moon [0:49]
31. Koji Kondo - RoboBrood Battle [3:25]
01. Naoto Kubo - To the Next Kingdom [0:53]
02. Naoto Kubo - The Odyssey Goes to the Moon [0:28]
03. Shiho Fujii - Honeylune Ridge [2:30]
04. Naoto Kubo - Underground Moon Caverns [2:53]
05. Shiho Fujii - Wedding Hall [2:17]
06. Shiho Fujii - Confrontation [0:24]
07. Naoto Kubo - Bowser Battle 2 ~Final Battlefield~ [3:33]
08. Naoto Kubo & Koji Kondo - Princess Peach Rescue...? [0:15]
09. Shiho Fujii - Capturing Bowser! [0:08]
10. Naoto Kubo - Honeylune Ridge Collapse [2:02]
11. Kate Davis & Naoto Kubo - Break Free (Lead the Way) [2:58]
12. Naoto Kubo - Staff Roll [3:03]
13. Shigetoshi Gohara - Around Peach's Castle [0:32]
14. Shiho Fujii & Koji Kondo - Peach's Castle [2:30]
15. Koji Kondo - Crazy Cap [3:10]
16. Naoto Kubo & Koji Kondo - Let's Play Slots [0:28]
17. Shiho Fujii - RC Car Challenge [1:26]
18. Shiho Fujii - Koopa Trace-Walking [0:41]
19. Koji Kondo - Run, Jump, Throw! Stage 1 [2:24]
20. Shiho Fujii - Run, Jump, Throw! Stage 2 [2:06]
21. Naoto Kubo & Koji Kondo - Caves Stage [1:05]
22. Shiho Fujii - Another World Stage [2:09]
23. Shiho Fujii & Koji Kondo - Above the Clouds Stage [1:40]
24. Naoto Kubo & Yuki Tsuji - Jump Up, Super Star! Music Box Version [1:41]
25. Naoto Kubo & Yuki Tsuji - Lullaby Until the End (Fossil Falls Music Box Version) [1:28]
26. Kate Davis & Naoto Kubo - Jump Up, Super Star! [4:08]
27. Aimi Mukohara & Naoto Kubo - Jump Up, Super Star! ~Odyssey, ya see~ [4:08]
28. Aimi Mukohara & Naoto Kubo - Break Free (Lead the Way) Japanese Version [3:00]
29. Naoto Kubo - Jump Up, Super Star! Karaoke [4:08]
30. Naoto Kubo - Jump Up, Super Star! ~Odyssey, ya see~ Karaoke [4:08]
31. Naoto Kubo - Break Free (Lead the Way) Karaoke [2:58]
01. Naoto Kubo - Fossil Falls 8bit Version [3:07]
02. Naoto Kubo - Tostarena Ruins 8bit Version [2:43]
03. Naoto Kubo - Inside the Inverted Pyramid 8bit Version [1:54]
04. Naoto Kubo - Tostarena Night 8bit Version [2:18]
05. Koji Kondo - Steam Gardens 8bit Version [2:45]
06. Shiho Fujii - Lake Lamode 8bit Version [2:32]
07. Koji Kondo - Forgotten Isle 8bit Version [2:28]
08. Shiho Fujii - Run, Jump, Throw! Stage 2 8bit Version [1:35]
09. Naoto Kubo & Koji Kondo - Underground Power Plant 8bit Version [1:43]
10. Naoto Kubo - Bubblaine 8bit Version [3:04]
11. Naoto Kubo - Mollusque-Lanceur Battle 8bit Version [2:26]
12. Shiho Fujii - Mount Volbono 8bit Version [2:40]
13. Koji Kondo - Bowser Castle 8bit Version [2:49]
14. Shiho Fujii - Honeylune Ridge 8bit Version [2:09]
15. Naoto Kubo - Honeylune Ridge Collapse 8bit Version [1:34]
16. Naoto Kubo - Break Free (Lead The Way) 8bit Version [2:39]
17. Naoto Kubo - Jump Up, Super Star! NDC Festival Edition 8bit Version [4:22]
18. Koji Kondo - Projection Room Above Ground [1:43]
19. Koji Kondo - Projection Room Underground [0:40]
20. Naoto Kubo - YOU GOT A MOON! 2 8bit Version [0:07]
21. Naoto Kubo - Dancing with New Friends! [0:13]
22. Naoto Kubo - A Relaxing Dance [0:21]
23. Naoto Kubo - Rolling Canyon [0:50]
24. Shigetoshi Gohara - Before Bowser Castle Courtyard [0:33]
25. Naoto Kubo - Capturing Frog! [0:08]
26. Shiho Fujii - The Odyssey's Activation [0:09]
27. Naoto Kubo & Mahito Yokota - The Odyssey Powers Up [0:09]
28. Naoto Kubo - Water Oath Liberator [0:11]
29. Shiho Fujii - Moon Rock Liberator [0:19]
30. Naoto Kubo - New Costume Added! [0:06]
31. Naoto Kubo - It's the Broodals! [0:06]
32. Naoto Kubo - Madame Broode Appears [0:07]
33. Koji Kondo - Klepto Appears [0:07]
34. Naoto Kubo - Mollusque-Lanceur Enraged [0:12]
35. Shiho Fujii - Cookatiel Appears [0:11]
36. Shiho Fujii - Regarding Position [0:09]
37. Shiho Fujii & Koji Kondo - Last Lap! [0:04]
38. Shiho Fujii - Victory! [0:06]
39. Shiho Fujii - Sorry... [0:08]
40. Naoto Kubo & Koji Kondo - CONGRATULATIONS! [0:17]
41. Naoto Kubo & Shigetoshi Gohara - Tostarena's Investigation [2:04]
42. Naoto Kubo & Shigetoshi Gohara - Gloomy Bubblaine [2:05]
43. Shiho Fujii & Shigetoshi Gohara - The Silver World of Shiveria [2:03]
<div class="sp-wrap">
<div class="sp-head folded">CD1</div>
<div class="sp-body">Exact Audio Copy V1.3 from 2. September 2016

Отчёт EAC об извлечении, выполненном 21. мая 2018, 21:50

Various / SUPER MARIO ODYSSEY ORIGINAL SOUND TRACK, Disc 1

Дисковод: HL-DT-STDVDRAM GH24NS90 Adapter: 1 ID: 0

Режим чтения : Достоверность
Использование точного потока : Да
Отключение кэша аудио : Нет
Использование указателей C2 : Нет

Коррекция смещения при чтении : 6
Способность читать области Lead-in и Lead-out : Нет
Заполнение пропущенных сэмплов тишиной : Да
Удаление блоков с тишиной в начале и конце : Нет
При вычислениях CRC использовались нулевые сэмплы : Да
Интерфейс : Встроенный Win32-интерфейс для Win NT/2000
Обработка зазоров : Добавлено к предыдущему треку

Выходной формат : Пользовательский кодировщик
Выбранный битрейт : 768 kBit/s
Качество : Высокий
Добавление ID3-тега : Нет
Утилита сжатия : D:\Program Files\Exact Audio Copy\FLAC\FLAC.EXE
Дополнительные параметры : -V -8 -T "Genre=%genre%" -T "Artist=%artist%" -T "Title=%title%" -T "Album=%albumtitle%" -T "Date=%year%" -T "Tracknumber=%tracknr%" -T "Comment=%comment%" %source%

TOC извлечённого CD

Трек | Старт | Длительность | Начальный сектор | Конечный сектор
---------------------------------------------------------------------
1 | 0:00.00 | 1:21.40 | 0 | 6114
2 | 1:21.40 | 1:24.37 | 6115 | 12451
3 | 2:46.02 | 1:22.35 | 12452 | 18636
4 | 4:08.37 | 2:44.18 | 18637 | 30954
5 | 6:52.55 | 2:12.12 | 30955 | 40866
6 | 9:04.67 | 0:46.13 | 40867 | 44329
7 | 9:51.05 | 1:59.12 | 44330 | 53266
8 | 11:50.17 | 0:14.50 | 53267 | 54366
9 | 12:04.67 | 4:08.45 | 54367 | 73011
10 | 16:13.37 | 0:10.35 | 73012 | 73796
11 | 16:23.72 | 1:41.70 | 73797 | 81441
12 | 18:05.67 | 2:09.20 | 81442 | 91136
13 | 20:15.12 | 0:46.63 | 91137 | 94649
14 | 21:02.00 | 0:13.70 | 94650 | 95694
15 | 21:15.70 | 3:54.42 | 95695 | 113286
16 | 25:10.37 | 2:23.03 | 113287 | 124014
17 | 27:33.40 | 2:16.67 | 124015 | 134281
18 | 29:50.32 | 2:00.40 | 134282 | 143321
19 | 31:50.72 | 2:44.20 | 143322 | 155641
20 | 34:35.17 | 1:56.53 | 155642 | 164394
21 | 36:31.70 | 0:07.37 | 164395 | 164956
22 | 36:39.32 | 3:44.08 | 164957 | 181764
23 | 40:23.40 | 2:07.67 | 181765 | 191356
24 | 42:31.32 | 3:27.38 | 191357 | 206919
25 | 45:58.70 | 2:23.37 | 206920 | 217681
26 | 48:22.32 | 3:23.08 | 217682 | 232914
27 | 51:45.40 | 1:54.00 | 232915 | 241464
28 | 53:39.40 | 0:35.47 | 241465 | 244136
29 | 54:15.12 | 0:57.03 | 244137 | 248414
30 | 55:12.15 | 2:49.62 | 248415 | 261151
31 | 58:02.02 | 0:34.38 | 261152 | 263739

Трек 1

Имя файла D:\Music\Soundtracks\Super Mario Odyssey Original Sound Track\Disc 1\01. Naoto Kubo - Title.wav

Длина предзазора 0:00:02.00

Пиковый уровень 99.8 %
Скорость извлечения 7.1 X
Качество трека 100.0 %
CRC теста B3E1D0A7
CRC копии B3E1D0A7
Точное извлечение (достоверность 5) [6A3980A8] (AR v2)
Копирование... OK

Трек 2

Имя файла D:\Music\Soundtracks\Super Mario Odyssey Original Sound Track\Disc 1\02. Naoto Kubo - Opening ~In the Skies Above Peach's Castle~.wav

Длина предзазора 0:00:00.45

Пиковый уровень 99.8 %
Скорость извлечения 7.4 X
Качество трека 100.0 %
CRC теста 291E79F3
CRC копии 291E79F3
Точное извлечение (достоверность 5) [447726E6] (AR v2)
Копирование... OK

Трек 3

Имя файла D:\Music\Soundtracks\Super Mario Odyssey Original Sound Track\Disc 1\03. Shiho Fujii - Encounter with Cappy.wav

Длина предзазора 0:00:02.44

Пиковый уровень 99.8 %
Скорость извлечения 8.1 X
Качество трека 100.0 %
CRC теста 022031F9
CRC копии 022031F9
Точное извлечение (достоверность 5) [64E08D57] (AR v2)
Копирование... OK

Трек 4

Имя файла D:\Music\Soundtracks\Super Mario Odyssey Original Sound Track\Disc 1\04. Shiho Fujii - Bonneton.wav

Длина предзазора 0:00:00.34

Пиковый уровень 99.8 %
Скорость извлечения 8.3 X
Качество трека 100.0 %
CRC теста 79D697B4
CRC копии 79D697B4
Точное извлечение (достоверность 5) [BB0E9B07] (AR v2)
Копирование... OK

Трек 5

Имя файла D:\Music\Soundtracks\Super Mario Odyssey Original Sound Track\Disc 1\05. Shiho Fujii - Top-Hat Tower.wav

Длина предзазора 0:00:01.65

Пиковый уровень 99.8 %
Скорость извлечения 8.7 X
Качество трека 99.9 %
CRC теста E564B60F
CRC копии E564B60F
Точное извлечение (достоверность 5) [C809BCD7] (AR v2)
Копирование... OK

Трек 6

Имя файла D:\Music\Soundtracks\Super Mario Odyssey Original Sound Track\Disc 1\06. Naoto Kubo & Shigetoshi Gohara - Broodals Confrontation.wav

Длина предзазора 0:00:01.44

Пиковый уровень 99.8 %
Скорость извлечения 8.3 X
Качество трека 99.7 %
CRC теста E5CE5CFE
CRC копии E5CE5CFE
Точное извлечение (достоверность 5) [7396B778] (AR v2)
Копирование... OK

Трек 7

Имя файла D:\Music\Soundtracks\Super Mario Odyssey Original Sound Track\Disc 1\07. Naoto Kubo - Broodals Battle.wav

Длина предзазора 0:00:01.20

Пиковый уровень 99.8 %
Скорость извлечения 9.2 X
Качество трека 99.9 %
CRC теста B084D97B
CRC копии B084D97B
Точное извлечение (достоверность 5) [13EB9A29] (AR v2)
Копирование... OK

Трек 8

Имя файла D:\Music\Soundtracks\Super Mario Odyssey Original Sound Track\Disc 1\08. Naoto Kubo & Shigetoshi Gohara - Beginning of the Adventure.wav

Длина предзазора 0:00:01.52

Пиковый уровень 99.8 %
Скорость извлечения 9.4 X
Качество трека 100.0 %
CRC теста AC2ACD54
CRC копии AC2ACD54
Точное извлечение (достоверность 5) [768E9047] (AR v2)
Копирование... OK

Трек 9

Имя файла D:\Music\Soundtracks\Super Mario Odyssey Original Sound Track\Disc 1\09. Naoto Kubo - Fossil Falls.wav

Длина предзазора 0:00:00.64

Пиковый уровень 99.8 %
Скорость извлечения 10.0 X
Качество трека 100.0 %
CRC теста D6AB60EF
CRC копии D6AB60EF
Точное извлечение (достоверность 5) [4CD2B747] (AR v2)
Копирование... OK

Трек 10

Имя файла D:\Music\Soundtracks\Super Mario Odyssey Original Sound Track\Disc 1\10. Naoto Kubo - YOU GOT A MOON! 1.wav

Длина предзазора 0:00:00.39

Пиковый уровень 99.8 %
Скорость извлечения 1.8 X
Качество трека 100.0 %
CRC теста 71DC02C1
CRC копии 71DC02C1
Точное извлечение (достоверность 5) [F650E5FB] (AR v2)
Копирование... OK

Трек 11

Имя файла D:\Music\Soundtracks\Super Mario Odyssey Original Sound Track\Disc 1\11. Naoto Kubo - Capturing Tyrannosaurus!.wav

Длина предзазора 0:00:01.07

Пиковый уровень 99.8 %
Скорость извлечения 2.4 X
Качество трека 99.8 %
CRC теста F522A5CF
CRC копии F522A5CF
Точное извлечение (достоверность 5) [1EB5C707] (AR v2)
Копирование... OK

Трек 12

Имя файла D:\Music\Soundtracks\Super Mario Odyssey Original Sound Track\Disc 1\12. Naoto Kubo - Madame Broode Battle.wav

Длина предзазора 0:00:01.02

Пиковый уровень 99.8 %
Скорость извлечения 11.0 X
Качество трека 100.0 %
CRC теста 40A2C7EB
CRC копии 40A2C7EB
Точное извлечение (достоверность 5) [B21D0032] (AR v2)
Копирование... OK

Трек 13

Имя файла D:\Music\Soundtracks\Super Mario Odyssey Original Sound Track\Disc 1\13. Naoto Kubo - Mario, World Traveler ~The Odyssey's First Takeoff~.wav

Длина предзазора 0:00:02.04

Пиковый уровень 99.8 %
Скорость извлечения 2.4 X
Качество трека 99.7 %
CRC теста BD8BFF89
CRC копии BD8BFF89
Точное извлечение (достоверность 5) [10318B3D] (AR v2)
Копирование... OK

Трек 14

Имя файла D:\Music\Soundtracks\Super Mario Odyssey Original Sound Track\Disc 1\14. Naoto Kubo - Scenario Introduction 1.wav

Длина предзазора 0:00:01.45

Пиковый уровень 99.8 %
Скорость извлечения 1.9 X
Качество трека 99.2 %
CRC теста CE6EB112
CRC копии CE6EB112
Точное извлечение (достоверность 5) [3780D196] (AR v2)
Копирование... OK

Трек 15

Имя файла D:\Music\Soundtracks\Super Mario Odyssey Original Sound Track\Disc 1\15. Naoto Kubo - Tostarena Ruins.wav

Длина предзазора 0:00:02.25

Пиковый уровень 99.8 %
Скорость извлечения 11.4 X
Качество трека 100.0 %
CRC теста 2CD763C6
CRC копии 2CD763C6
Точное извлечение (достоверность 5) [27DAC087] (AR v2)
Копирование... OK

Трек 16

Имя файла D:\Music\Soundtracks\Super Mario Odyssey Original Sound Track\Disc 1\16. Naoto Kubo - Inside the Inverted Pyramid.wav

Длина предзазора 0:00:01.19

Пиковый уровень 99.8 %
Скорость извлечения 2.7 X
Качество трека 100.0 %
CRC теста B8795E2D
CRC копии B8795E2D
Точное извлечение (достоверность 5) [0AFD02CD] (AR v2)
Копирование... OK

Трек 17

Имя файла D:\Music\Soundtracks\Super Mario Odyssey Original Sound Track\Disc 1\17. Naoto Kubo - Tostarena Night.wav

Длина предзазора 0:00:02.45

Пиковый уровень 95.0 %
Скорость извлечения 2.9 X
Качество трека 100.0 %
CRC теста E04E2A35
CRC копии E04E2A35
Точное извлечение (достоверность 5) [FBD011A4] (AR v2)
Копирование... OK

Трек 18

Имя файла D:\Music\Soundtracks\Super Mario Odyssey Original Sound Track\Disc 1\18. Naoto Kubo - Riding the Jaxi.wav

Длина предзазора 0:00:01.69

Пиковый уровень 99.1 %
Скорость извлечения 3.0 X
Качество трека 100.0 %
CRC теста 2380C84D
CRC копии 2380C84D
Точное извлечение (достоверность 5) [BAE83FF8] (AR v2)
Копирование... OK

Трек 19

Имя файла D:\Music\Soundtracks\Super Mario Odyssey Original Sound Track\Disc 1\19. Naoto Kubo - Tostarena Battle.wav

Длина предзазора 0:00:01.72

Пиковый уровень 99.8 %
Скорость извлечения 3.0 X
Качество трека 100.0 %
CRC теста DB52EC22
CRC копии DB52EC22
Точное извлечение (достоверность 5) [2D1FC718] (AR v2)
Копирование... OK

Трек 20

Имя файла D:\Music\Soundtracks\Super Mario Odyssey Original Sound Track\Disc 1\20. Naoto Kubo - Tostarena Town.wav

Длина предзазора 0:00:02.07

Пиковый уровень 88.9 %
Скорость извлечения 3.0 X
Качество трека 100.0 %
CRC теста BEB9A16E
CRC копии BEB9A16E
Точное извлечение (достоверность 5) [59F420FF] (AR v2)
Копирование... OK

Трек 21

Имя файла D:\Music\Soundtracks\Super Mario Odyssey Original Sound Track\Disc 1\21. Naoto Kubo - YOU GOT A MOON! 2.wav

Длина предзазора 0:00:00.40

Пиковый уровень 85.0 %
Скорость извлечения 1.9 X
Качество трека 100.0 %
CRC теста 71F98FD1
CRC копии 71F98FD1
Точное извлечение (достоверность 2) [9816B6EF] (AR v2)
Копирование... OK

Трек 22

Имя файла D:\Music\Soundtracks\Super Mario Odyssey Original Sound Track\Disc 1\22. Koji Kondo - Steam Gardens.wav

Длина предзазора 0:00:01.67

Пиковый уровень 98.7 %
Скорость извлечения 3.2 X
Качество трека 99.9 %
CRC теста 4156F810
CRC копии 4156F810
Точное извлечение (достоверность 5) [006CA2BB] (AR v2)
Копирование... OK

Трек 23

Имя файла D:\Music\Soundtracks\Super Mario Odyssey Original Sound Track\Disc 1\23. Koji Kondo - Steam Gardens Sherm.wav

Длина предзазора 0:00:01.72

Пиковый уровень 94.3 %
Скорость извлечения 3.3 X
Качество трека 100.0 %
CRC теста CB9639BE
CRC копии CB9639BE
Точное извлечение (достоверность 5) [6DD7812E] (AR v2)
Копирование... OK

Трек 24

Имя файла D:\Music\Soundtracks\Super Mario Odyssey Original Sound Track\Disc 1\24. Koji Kondo - Torkdrift Battle.wav

Длина предзазора 0:00:01.74

Пиковый уровень 99.8 %
Скорость извлечения 3.3 X
Качество трека 99.9 %
CRC теста 44087BB8
CRC копии 44087BB8
Точное извлечение (достоверность 5) [489A8879] (AR v2)
Копирование... OK

Трек 25

Имя файла D:\Music\Soundtracks\Super Mario Odyssey Original Sound Track\Disc 1\25. Shiho Fujii - Lake Lamode Underwater Passage.wav

Длина предзазора 0:00:01.25

Пиковый уровень 99.7 %
Скорость извлечения 3.5 X
Качество трека 100.0 %
CRC теста D8B3BB32
CRC копии D8B3BB32
Точное извлечение (достоверность 5) [8368E619] (AR v2)
Копирование... OK

Трек 26

Имя файла D:\Music\Soundtracks\Super Mario Odyssey Original Sound Track\Disc 1\26. Shiho Fujii - Lake Lamode.wav

Длина предзазора 0:00:00.34

Пиковый уровень 99.8 %
Скорость извлечения 3.5 X
Качество трека 100.0 %
CRC теста 2844CDC6
CRC копии 2844CDC6
Точное извлечение (достоверность 5) [9A3123D8] (AR v2)
Копирование... OK

Трек 27

Имя файла D:\Music\Soundtracks\Super Mario Odyssey Original Sound Track\Disc 1\27. Shiho Fujii - Lake Lamode Above Ground.wav

Длина предзазора 0:00:02.07

Пиковый уровень 89.9 %
Скорость извлечения 3.6 X
Качество трека 100.0 %
CRC теста 7015E284
CRC копии 7015E284
Точное извлечение (достоверность 5) [8616E0AC] (AR v2)
Копирование... OK

Трек 28

Имя файла D:\Music\Soundtracks\Super Mario Odyssey Original Sound Track\Disc 1\28. Naoto Kubo - Found Bowser's Airship!.wav

Длина предзазора 0:00:01.40

Пиковый уровень 99.8 %
Скорость извлечения 3.6 X
Качество трека 100.0 %
CRC теста A9EAC1E7
CRC копии A9EAC1E7
Точное извлечение (достоверность 5) [0E44A4E0] (AR v2)
Копирование... OK

Трек 29

Имя файла D:\Music\Soundtracks\Super Mario Odyssey Original Sound Track\Disc 1\29. Naoto Kubo - Bowser Appearance.wav

Длина предзазора 0:00:00.39

Пиковый уровень 79.9 %
Скорость извлечения 3.4 X
Качество трека 100.0 %
CRC теста 4450A43E
CRC копии 4450A43E
Точное извлечение (достоверность 5) [5B61A0C5] (AR v2)
Копирование... OK

Трек 30

Имя файла D:\Music\Soundtracks\Super Mario Odyssey Original Sound Track\Disc 1\30. Shiho Fujii - Bowser Battle 1 ~Nimbus Arena Showdown~.wav

Длина предзазора 0:00:00.22

Пиковый уровень 99.8 %
Скорость извлечения 3.6 X
Качество трека 100.0 %
CRC теста 4CE20480
CRC копии 4CE20480
Точное извлечение (достоверность 5) [29C5E5FB] (AR v2)
Копирование... OK

Трек 31

Имя файла D:\Music\Soundtracks\Super Mario Odyssey Original Sound Track\Disc 1\31. Naoto Kubo - Bowser Bombardment ~ The Odyssey Crashes.wav

Длина предзазора 0:00:01.52

Пиковый уровень 99.8 %
Скорость извлечения 3.0 X
Качество трека 99.6 %
CRC теста D5C2EA20
CRC копии D5C2EA20
Точное извлечение (достоверность 5) [77C555D6] (AR v2)
Копирование... OK

Все треки извлечены точно

Ошибок не произошло

Конец отчёта

==== Контрольная сумма отчёта DAB733AA2BF6DE72ACDEBC3A34A74210481F3541BE9BB5D64FEEEBED68F3146A ====
Exact Audio Copy V1.3 from 2. September 2016

Отчёт EAC об извлечении, выполненном 21. мая 2018, 22:35

Various / SUPER MARIO ODYSSEY ORIGINAL SOUND TRACK, Disc 2

Дисковод: HL-DT-STDVDRAM GH24NS90 Adapter: 1 ID: 0

Режим чтения : Достоверность
Использование точного потока : Да
Отключение кэша аудио : Нет
Использование указателей C2 : Нет

Коррекция смещения при чтении : 6
Способность читать области Lead-in и Lead-out : Нет
Заполнение пропущенных сэмплов тишиной : Да
Удаление блоков с тишиной в начале и конце : Нет
При вычислениях CRC использовались нулевые сэмплы : Да
Интерфейс : Встроенный Win32-интерфейс для Win NT/2000
Обработка зазоров : Добавлено к предыдущему треку

Выходной формат : Пользовательский кодировщик
Выбранный битрейт : 768 kBit/s
Качество : Высокий
Добавление ID3-тега : Нет
Утилита сжатия : D:\Program Files\Exact Audio Copy\FLAC\FLAC.EXE
Дополнительные параметры : -V -8 -T "Genre=%genre%" -T "Artist=%artist%" -T "Title=%title%" -T "Album=%albumtitle%" -T "Date=%year%" -T "Tracknumber=%tracknr%" -T "Comment=%comment%" %source%

TOC извлечённого CD

Трек | Старт | Длительность | Начальный сектор | Конечный сектор
---------------------------------------------------------------------
1 | 0:00.00 | 1:36.67 | 0 | 7266
2 | 1:36.67 | 3:17.05 | 7267 | 22046
3 | 4:53.72 | 0:11.03 | 22047 | 22874
4 | 5:05.00 | 1:39.13 | 22875 | 30312
5 | 6:44.13 | 2:20.19 | 30313 | 40831
6 | 9:04.32 | 3:14.70 | 40832 | 55451
7 | 12:19.27 | 0:17.63 | 55452 | 56789
8 | 12:37.15 | 3:22.08 | 56790 | 71947
9 | 15:59.23 | 2:17.20 | 71948 | 82242
10 | 18:16.43 | 2:53.30 | 82243 | 95247
11 | 21:09.73 | 2:12.35 | 95248 | 105182
12 | 23:22.33 | 4:19.42 | 105183 | 124649
13 | 27:42.00 | 0:16.35 | 124650 | 125884
14 | 27:58.35 | 2:44.70 | 125885 | 138254
15 | 30:43.30 | 2:01.43 | 138255 | 147372
16 | 32:44.73 | 1:30.35 | 147373 | 154157
17 | 34:15.33 | 1:32.70 | 154158 | 161127
18 | 35:48.28 | 0:37.60 | 161128 | 163962
19 | 36:26.13 | 4:04.42 | 163963 | 182304
20 | 40:30.55 | 2:26.10 | 182305 | 193264
21 | 42:56.65 | 3:29.15 | 193265 | 208954
22 | 46:26.05 | 0:11.23 | 208955 | 209802
23 | 46:37.28 | 3:33.00 | 209803 | 225777
24 | 50:10.28 | 3:06.72 | 225778 | 239799
25 | 53:17.25 | 2:58.35 | 239800 | 253184
26 | 56:15.60 | 0:52.65 | 253185 | 257149
27 | 57:08.50 | 2:57.50 | 257150 | 270474
28 | 60:06.25 | 3:32.73 | 270475 | 286447
29 | 63:39.23 | 2:57.34 | 286448 | 299756
30 | 66:36.57 | 0:49.01 | 299757 | 303432
31 | 67:25.58 | 3:24.56 | 303433 | 318788

Трек 1

Имя файла D:\Music\Soundtracks\Super Mario Odyssey Original Sound Track\Disc 2\01. Koji Kondo - Cappy Gets Taken Away!.wav

Длина предзазора 0:00:02.00

Пиковый уровень 99.8 %
Скорость извлечения 8.1 X
Качество трека 100.0 %
CRC теста C75B2ADD
CRC копии C75B2ADD
Точное извлечение (достоверность 3) [EE8348B6] (AR v2)
Копирование... OK

Трек 2

Имя файла D:\Music\Soundtracks\Super Mario Odyssey Original Sound Track\Disc 2\02. Koji Kondo - Forgotten Isle.wav

Длина предзазора 0:00:00.72

Пиковый уровень 99.8 %
Скорость извлечения 8.9 X
Качество трека 100.0 %
CRC теста 33A9B987
CRC копии 33A9B987
Точное извлечение (достоверность 3) [59AE5678] (AR v2)
Копирование... OK

Трек 3

Имя файла D:\Music\Soundtracks\Super Mario Odyssey Original Sound Track\Disc 2\03. Naoto Kubo - Scenario Introduction 2.wav

Длина предзазора 0:00:01.62

Пиковый уровень 99.8 %
Скорость извлечения 2.2 X
Качество трека 100.0 %
CRC теста F5330492
CRC копии F5330492
Точное извлечение (достоверность 3) [5698463B] (AR v2)
Копирование... OK

Трек 4

Имя файла D:\Music\Soundtracks\Super Mario Odyssey Original Sound Track\Disc 2\04. Naoto Kubo - New Donk City Night 1.wav

Длина предзазора 0:00:00.52

Пиковый уровень 98.3 %
Скорость извлечения 9.2 X
Качество трека 100.0 %
CRC теста 480DB0DE
CRC копии 480DB0DE
Точное извлечение (достоверность 3) [199A1FBE] (AR v2)
Копирование... OK

Трек 5

Имя файла D:\Music\Soundtracks\Super Mario Odyssey Original Sound Track\Disc 2\05. Naoto Kubo - New Donk City Night 2 ~City Hall~.wav

Пиковый уровень 99.8 %
Скорость извлечения 9.7 X
Качество трека 100.0 %
CRC теста 0C5097A1
CRC копии 0C5097A1
Точное извлечение (достоверность 3) [9E0422D9] (AR v2)
Копирование... OK

Трек 6

Имя файла D:\Music\Soundtracks\Super Mario Odyssey Original Sound Track\Disc 2\06. Naoto Kubo - Mechawiggler Battle.wav

Длина предзазора 0:00:01.29

Пиковый уровень 99.8 %
Скорость извлечения 10.6 X
Качество трека 100.0 %
CRC теста 5AAD4D0D
CRC копии 5AAD4D0D
Точное извлечение (достоверность 3) [46F119D0] (AR v2)
Копирование... OK

Трек 7

Имя файла D:\Music\Soundtracks\Super Mario Odyssey Original Sound Track\Disc 2\07. Naoto Kubo - YOU GOT A GRAND MOON!.wav

Длина предзазора 0:00:01.02

Пиковый уровень 97.2 %
Скорость извлечения 2.0 X
Качество трека 100.0 %
CRC теста 202D0758
CRC копии 202D0758
Точное извлечение (достоверность 3) [AE74FA67] (AR v2)
Копирование... OK

Трек 8

Имя файла D:\Music\Soundtracks\Super Mario Odyssey Original Sound Track\Disc 2\08. Naoto Kubo - New Donk City.wav

Длина предзазора 0:00:02.37

Пиковый уровень 99.8 %
Скорость извлечения 11.0 X
Качество трека 100.0 %
CRC теста 97080EBD
CRC копии 97080EBD
Точное извлечение (достоверность 3) [F8492B42] (AR v2)
Копирование... OK

Трек 9

Имя файла D:\Music\Soundtracks\Super Mario Odyssey Original Sound Track\Disc 2\09. Naoto Kubo & Koji Kondo - Band Performance (Super Mario Brothers Above Ground).wav

Длина предзазора 0:00:00.44

Пиковый уровень 99.8 %
Скорость извлечения 11.4 X
Качество трека 100.0 %
CRC теста 63C72E3A
CRC копии 63C72E3A
Точное извлечение (достоверность 3) [189F2992] (AR v2)
Копирование... OK

Трек 10

Имя файла D:\Music\Soundtracks\Super Mario Odyssey Original Sound Track\Disc 2\10. Naoto Kubo & Koji Kondo - Poolside Rest.wav

Длина предзазора 0:00:03.24

Пиковый уровень 99.8 %
Скорость извлечения 12.2 X
Качество трека 100.0 %
CRC теста 3A1440B4
CRC копии 3A1440B4
Точное извлечение (достоверность 3) [EF35ED93] (AR v2)
Копирование... OK

Трек 11

Имя файла D:\Music\Soundtracks\Super Mario Odyssey Original Sound Track\Disc 2\11. Naoto Kubo & Koji Kondo - Underground Power Plant.wav

Длина предзазора 0:00:01.59

Пиковый уровень 99.8 %
Скорость извлечения 2.9 X
Качество трека 99.9 %
CRC теста 296F51B1
CRC копии 296F51B1
Точное извлечение (достоверность 3) [B9C7CCF8] (AR v2)
Копирование... OK

Трек 12

Имя файла D:\Music\Soundtracks\Super Mario Odyssey Original Sound Track\Disc 2\12. Naoto Kubo - Jump Up, Super Star! NDC Festival Edition.wav

Длина предзазора 0:00:02.02

Пиковый уровень 99.8 %
Скорость извлечения 12.8 X
Качество трека 100.0 %
CRC теста 9AE0D34F
CRC копии 9AE0D34F
Точное извлечение (достоверность 3) [F184F2B4] (AR v2)
Копирование... OK

Трек 13

Имя файла D:\Music\Soundtracks\Super Mario Odyssey Original Sound Track\Disc 2\13. Naoto Kubo - Traditional Festival Ends!.wav

Длина предзазора 0:00:00.56

Пиковый уровень 99.8 %
Скорость извлечения 2.4 X
Качество трека 100.0 %
CRC теста 73436083
CRC копии 73436083
Точное извлечение (достоверность 3) [3E627AEE] (AR v2)
Копирование... OK

Трек 14

Имя файла D:\Music\Soundtracks\Super Mario Odyssey Original Sound Track\Disc 2\14. Shiho Fujii - Shiveria Town.wav

Длина предзазора 0:00:01.01

Пиковый уровень 99.8 %
Скорость извлечения 3.1 X
Качество трека 100.0 %
CRC теста 8CBCC553
CRC копии 8CBCC553
Точное извлечение (достоверность 3) [55A239DA] (AR v2)
Копирование... OK

Трек 15

Имя файла D:\Music\Soundtracks\Super Mario Odyssey Original Sound Track\Disc 2\15. Naoto Kubo - Ice Cave.wav

Длина предзазора 0:00:02.26

Пиковый уровень 99.8 %
Скорость извлечения 4.8 X
Качество трека 100.0 %
CRC теста B8469A61
CRC копии B8469A61
Точное извлечение (достоверность 3) [D8FE0529] (AR v2)
Копирование... OK

Трек 16

Имя файла D:\Music\Soundtracks\Super Mario Odyssey Original Sound Track\Disc 2\16. Shiho Fujii - Snowline Circuit.wav

Длина предзазора 0:00:01.59

Пиковый уровень 99.8 %
Скорость извлечения 13.5 X
Качество трека 100.0 %
CRC теста 44433D94
CRC копии 44433D94
Точное извлечение (достоверность 3) [628A1E02] (AR v2)
Копирование... OK

Трек 17

Имя файла D:\Music\Soundtracks\Super Mario Odyssey Original Sound Track\Disc 2\17. Shiho Fujii - Bound Bowl GP.wav

Длина предзазора 0:00:01.04

Пиковый уровень 99.8 %
Скорость извлечения 13.4 X
Качество трека 99.8 %
CRC теста 8D70F935
CRC копии 8D70F935
Точное извлечение (достоверность 3) [72546216] (AR v2)
Копирование... OK

Трек 18

Имя файла D:\Music\Soundtracks\Super Mario Odyssey Original Sound Track\Disc 2\18. Shiho Fujii - Race Result.wav

Длина предзазора 0:00:02.24

Пиковый уровень 99.8 %
Скорость извлечения 12.3 X
Качество трека 100.0 %
CRC теста B59750A3
CRC копии B59750A3
Точное извлечение (достоверность 3) [6AEAC984] (AR v2)
Копирование... OK

Трек 19

Имя файла D:\Music\Soundtracks\Super Mario Odyssey Original Sound Track\Disc 2\19. Naoto Kubo - Bubblaine.wav

Длина предзазора 0:00:02.19

Пиковый уровень 99.8 %
Скорость извлечения 14.6 X
Качество трека 100.0 %
CRC теста 370EB096
CRC копии 370EB096
Точное извлечение (достоверность 3) [8783B135] (AR v2)
Копирование... OK

Трек 20

Имя файла D:\Music\Soundtracks\Super Mario Odyssey Original Sound Track\Disc 2\20. Naoto Kubo - Bubblaine Underwater.wav

Длина предзазора 0:00:00.46

Пиковый уровень 99.8 %
Скорость извлечения 3.6 X
Качество трека 100.0 %
CRC теста 55EA7207
CRC копии 55EA7207
Точное извлечение (достоверность 3) [D91600E6] (AR v2)
Копирование... OK

Трек 21

Имя файла D:\Music\Soundtracks\Super Mario Odyssey Original Sound Track\Disc 2\21. Naoto Kubo - Mollusque-Lanceur Battle.wav

Длина предзазора 0:00:03.39

Пиковый уровень 99.8 %
Скорость извлечения 3.7 X
Качество трека 100.0 %
CRC теста CA84AFAC
CRC копии CA84AFAC
Точное извлечение (достоверность 3) [55F21178] (AR v2)
Копирование... OK

Трек 22

Имя файла D:\Music\Soundtracks\Super Mario Odyssey Original Sound Track\Disc 2\22. Naoto Kubo - Scenario Introduction 3.wav

Длина предзазора 0:00:02.61

Пиковый уровень 99.8 %
Скорость извлечения 2.5 X
Качество трека 99.0 %
CRC теста 9B647591
CRC копии 9B647591
Точное извлечение (достоверность 3) [C6DBD23A] (AR v2)
Копирование... OK

Трек 23

Имя файла D:\Music\Soundtracks\Super Mario Odyssey Original Sound Track\Disc 2\23. Shiho Fujii - Mount Volbono.wav

Длина предзазора 0:00:01.39

Пиковый уровень 99.8 %
Скорость извлечения 3.7 X
Качество трека 100.0 %
CRC теста 5EF81185
CRC копии 5EF81185
Точное извлечение (достоверность 3) [BA2CB2D9] (AR v2)
Копирование... OK

Трек 24

Имя файла D:\Music\Soundtracks\Super Mario Odyssey Original Sound Track\Disc 2\24. Shiho Fujii - Peronza Plaza.wav

Длина предзазора 0:00:00.72

Пиковый уровень 99.8 %
Скорость извлечения 3.9 X
Качество трека 100.0 %
CRC теста 26679672
CRC копии 26679672
Точное извлечение (достоверность 3) [E8682626] (AR v2)
Копирование... OK

Трек 25

Имя файла D:\Music\Soundtracks\Super Mario Odyssey Original Sound Track\Disc 2\25. Shiho Fujii - Cookatiel Battle.wav

Длина предзазора 0:00:00.51

Пиковый уровень 99.8 %
Скорость извлечения 3.9 X
Качество трека 100.0 %
CRC теста 489252CA
CRC копии 489252CA
Точное извлечение (достоверность 3) [EE5729F0] (AR v2)
Копирование... OK

Трек 26

Имя файла D:\Music\Soundtracks\Super Mario Odyssey Original Sound Track\Disc 2\26. Naoto Kubo - Ruined Dragon Appears.wav

Длина предзазора 0:00:01.64

Пиковый уровень 99.8 %
Скорость извлечения 4.1 X
Качество трека 100.0 %
CRC теста 6E509AEF
CRC копии 6E509AEF
Точное извлечение (достоверность 3) [5EDBD610] (AR v2)
Копирование... OK

Трек 27

Имя файла D:\Music\Soundtracks\Super Mario Odyssey Original Sound Track\Disc 2\27. Shiho Fujii - Ruined Dragon Battle.wav

Длина предзазора 0:00:01.61

Пиковый уровень 99.8 %
Скорость извлечения 4.1 X
Качество трека 100.0 %
CRC теста 4C285B3E
CRC копии 4C285B3E
Точное извлечение (достоверность 3) [CB312771] (AR v2)
Копирование... OK

Трек 28

Имя файла D:\Music\Soundtracks\Super Mario Odyssey Original Sound Track\Disc 2\28. Koji Kondo - Bowser Castle.wav

Длина предзазора 0:00:02.61

Пиковый уровень 99.8 %
Скорость извлечения 4.1 X
Качество трека 100.0 %
CRC теста 153D1CED
CRC копии 153D1CED
Точное извлечение (достоверность 3) [32A8A0F5] (AR v2)
Копирование... OK

Трек 29

Имя файла D:\Music\Soundtracks\Super Mario Odyssey Original Sound Track\Disc 2\29. Koji Kondo - Bowser Castle Courtyard.wav

Длина предзазора 0:00:01.72

Пиковый уровень 99.8 %
Скорость извлечения 4.2 X
Качество трека 100.0 %
CRC теста 31E11A0F
CRC копии 31E11A0F
Точное извлечение (достоверность 3) [035C197F] (AR v2)
Копирование... OK

Трек 30

Имя файла D:\Music\Soundtracks\Super Mario Odyssey Original Sound Track\Disc 2\30. Naoto Kubo - Bowser Flies to the Moon.wav

Длина предзазора 0:00:01.31

Пиковый уровень 99.8 %
Скорость извлечения 3.8 X
Качество трека 100.0 %
CRC теста 74551874
CRC копии 74551874
Точное извлечение (достоверность 3) [938EBE6F] (AR v2)
Копирование... OK

Трек 31

Имя файла D:\Music\Soundtracks\Super Mario Odyssey Original Sound Track\Disc 2\31. Koji Kondo - RoboBrood Battle.wav

Пиковый уровень 99.8 %
Скорость извлечения 4.3 X
Качество трека 100.0 %
CRC теста 489FFDC1
CRC копии 489FFDC1
Точное извлечение (достоверность 3) [09A992C0] (AR v2)
Копирование... OK

Все треки извлечены точно

Ошибок не произошло

Конец отчёта

==== Контрольная сумма отчёта 2FE5A330FF4D2E84050F6BF06EF71FDD2D315DBBC8DB82ECE658DD7F5C02B690 ====
Exact Audio Copy V1.3 from 2. September 2016

Отчёт EAC об извлечении, выполненном 22. мая 2018, 22:24

Various / SUPER MARIO ODYSSEY ORIGINAL SOUND TRACK, Disc 3

Дисковод: HL-DT-STDVDRAM GH24NS90 Adapter: 1 ID: 0

Режим чтения : Достоверность
Использование точного потока : Да
Отключение кэша аудио : Нет
Использование указателей C2 : Нет

Коррекция смещения при чтении : 6
Способность читать области Lead-in и Lead-out : Нет
Заполнение пропущенных сэмплов тишиной : Да
Удаление блоков с тишиной в начале и конце : Нет
При вычислениях CRC использовались нулевые сэмплы : Да
Интерфейс : Встроенный Win32-интерфейс для Win NT/2000
Обработка зазоров : Добавлено к предыдущему треку

Выходной формат : Пользовательский кодировщик
Выбранный битрейт : 768 kBit/s
Качество : Высокий
Добавление ID3-тега : Нет
Утилита сжатия : D:\Program Files\Exact Audio Copy\FLAC\FLAC.EXE
Дополнительные параметры : -V -8 -T "Genre=%genre%" -T "Artist=%artist%" -T "Title=%title%" -T "Album=%albumtitle%" -T "Date=%year%" -T "Tracknumber=%tracknr%" -T "Comment=%comment%" %source%

TOC извлечённого CD

Трек | Старт | Длительность | Начальный сектор | Конечный сектор
---------------------------------------------------------------------
1 | 0:00.00 | 0:53.00 | 0 | 3974
2 | 0:53.00 | 0:28.02 | 3975 | 6076
3 | 1:21.02 | 2:29.70 | 6077 | 17321
4 | 3:50.72 | 2:52.58 | 17322 | 30279
5 | 6:43.55 | 2:16.62 | 30280 | 40541
6 | 9:00.42 | 0:23.40 | 40542 | 42306
7 | 9:24.07 | 3:33.18 | 42307 | 58299
8 | 12:57.25 | 0:15.18 | 58300 | 59442
9 | 13:12.43 | 0:08.15 | 59443 | 60057
10 | 13:20.58 | 2:01.42 | 60058 | 69174
11 | 15:22.25 | 2:57.60 | 69175 | 82509
12 | 18:20.10 | 3:02.66 | 82510 | 96225
13 | 21:23.01 | 0:32.37 | 96226 | 98662
14 | 21:55.38 | 2:29.62 | 98663 | 109899
15 | 24:25.25 | 3:10.13 | 109900 | 124162
16 | 27:35.38 | 0:28.00 | 124163 | 126262
17 | 28:03.38 | 1:26.00 | 126263 | 132712
18 | 29:29.38 | 0:40.40 | 132713 | 135752
19 | 30:10.03 | 2:23.70 | 135753 | 146547
20 | 32:33.73 | 2:06.02 | 146548 | 155999
21 | 34:40.00 | 1:04.55 | 156000 | 160854
22 | 35:44.55 | 2:08.53 | 160855 | 170507
23 | 37:53.33 | 1:40.07 | 170508 | 178014
24 | 39:33.40 | 1:40.55 | 178015 | 185569
25 | 41:14.20 | 1:27.55 | 185570 | 192149
26 | 42:42.00 | 4:08.03 | 192150 | 210752
27 | 46:50.03 | 4:08.07 | 210753 | 229359
28 | 50:58.10 | 3:00.08 | 229360 | 242867
29 | 53:58.18 | 4:08.15 | 242868 | 261482
30 | 58:06.33 | 4:08.18 | 261483 | 280100
31 | 62:14.51 | 2:57.46 | 280101 | 293421

Трек 1

Имя файла D:\Music\Soundtracks\Super Mario Odyssey Original Sound Track\Disc 3\01. Naoto Kubo - To the Next Kingdom.wav

Длина предзазора 0:00:02.00

Пиковый уровень 99.8 %
Скорость извлечения 7.7 X
Качество трека 100.0 %
CRC теста EC916EEC
CRC копии EC916EEC
Точное извлечение (достоверность 3) [B07A4BA9] (AR v2)
Копирование... OK

Трек 2

Имя файла D:\Music\Soundtracks\Super Mario Odyssey Original Sound Track\Disc 3\02. Naoto Kubo - The Odyssey Goes to the Moon.wav

Длина предзазора 0:00:00.40

Пиковый уровень 99.8 %
Скорость извлечения 4.5 X
Качество трека 100.0 %
CRC теста C795F9C7
CRC копии C795F9C7
Точное извлечение (достоверность 3) [5FE43E24] (AR v2)
Копирование... OK

Трек 3

Имя файла D:\Music\Soundtracks\Super Mario Odyssey Original Sound Track\Disc 3\03. Shiho Fujii - Honeylune Ridge.wav

Длина предзазора 0:00:01.72

Пиковый уровень 77.6 %
Скорость извлечения 8.7 X
Качество трека 100.0 %
CRC теста 489526B4
CRC копии 489526B4
Точное извлечение (достоверность 3) [9A2A7935] (AR v2)
Копирование... OK

Трек 4

Имя файла D:\Music\Soundtracks\Super Mario Odyssey Original Sound Track\Disc 3\04. Naoto Kubo - Underground Moon Caverns.wav

Длина предзазора 0:00:00.52

Пиковый уровень 99.8 %
Скорость извлечения 9.5 X
Качество трека 100.0 %
CRC теста 2F98C323
CRC копии 2F98C323
Точное извлечение (достоверность 3) [26E2B6DE] (AR v2)
Копирование... OK

Трек 5

Имя файла D:\Music\Soundtracks\Super Mario Odyssey Original Sound Track\Disc 3\05. Shiho Fujii - Wedding Hall.wav

Длина предзазора 0:00:02.25

Пиковый уровень 65.2 %
Скорость извлечения 10.0 X
Качество трека 100.0 %
CRC теста EE4B58C5
CRC копии EE4B58C5
Точное извлечение (достоверность 3) [EE2B22D0] (AR v2)
Копирование... OK

Трек 6

Имя файла D:\Music\Soundtracks\Super Mario Odyssey Original Sound Track\Disc 3\06. Shiho Fujii - Confrontation.wav

Длина предзазора 0:00:00.42

Пиковый уровень 87.3 %
Скорость извлечения 2.0 X
Качество трека 99.5 %
CRC теста A28B5EF3
CRC копии A28B5EF3
Точное извлечение (достоверность 3) [D1BAD030] (AR v2)
Копирование... OK

Трек 7

Имя файла D:\Music\Soundtracks\Super Mario Odyssey Original Sound Track\Disc 3\07. Naoto Kubo - Bowser Battle 2 ~Final Battlefield~.wav

Длина предзазора 0:00:00.62

Пиковый уровень 99.8 %
Скорость извлечения 9.7 X
Качество трека 100.0 %
CRC теста 8AFD0E07
CRC копии 8AFD0E07
Точное извлечение (достоверность 3) [72F953CD] (AR v2)
Копирование... OK

Трек 8

Имя файла D:\Music\Soundtracks\Super Mario Odyssey Original Sound Track\Disc 3\08. Naoto Kubo & Koji Kondo - Princess Peach Rescue....wav

Длина предзазора 0:00:03.05

Пиковый уровень 57.7 %
Скорость извлечения 1.9 X
Качество трека 99.2 %
CRC теста 38B4E11D
CRC копии 38B4E11D
Точное извлечение (достоверность 3) [32C3E03C] (AR v2)
Копирование... OK

Трек 9

Имя файла D:\Music\Soundtracks\Super Mario Odyssey Original Sound Track\Disc 3\09. Shiho Fujii - Capturing Bowser!.wav

Длина предзазора 0:00:01.18

Пиковый уровень 99.8 %
Скорость извлечения 1.6 X
Качество трека 100.0 %
CRC теста 8B204328
CRC копии 8B204328
Точное извлечение (достоверность 3) [ED25536C] (AR v2)
Копирование... OK

Трек 10

Имя файла D:\Music\Soundtracks\Super Mario Odyssey Original Sound Track\Disc 3\10. Naoto Kubo - Honeylune Ridge Collapse.wav

Пиковый уровень 99.8 %
Скорость извлечения 11.2 X
Качество трека 100.0 %
CRC теста AF6D5D2F
CRC копии AF6D5D2F
Точное извлечение (достоверность 3) [0FDB419F] (AR v2)
Копирование... OK

Трек 11

Имя файла D:\Music\Soundtracks\Super Mario Odyssey Original Sound Track\Disc 3\11. Kate Davis & Naoto Kubo - Break Free (Lead the Way).wav

Длина предзазора 0:00:01.16

Пиковый уровень 99.8 %
Скорость извлечения 11.4 X
Качество трека 100.0 %
CRC теста 61DBCC77
CRC копии 61DBCC77
Точное извлечение (достоверность 3) [60434BDD] (AR v2)
Копирование... OK

Трек 12

Имя файла D:\Music\Soundtracks\Super Mario Odyssey Original Sound Track\Disc 3\12. Naoto Kubo - Staff Roll.wav

Длина предзазора 0:00:00.24

Пиковый уровень 99.8 %
Скорость извлечения 11.9 X
Качество трека 100.0 %
CRC теста F9AB0790
CRC копии F9AB0790
Точное извлечение (достоверность 3) [C406D07F] (AR v2)
Копирование... OK

Трек 13

Имя файла D:\Music\Soundtracks\Super Mario Odyssey Original Sound Track\Disc 3\13. Shigetoshi Gohara - Around Peach's Castle.wav

Длина предзазора 0:00:01.37

Пиковый уровень 28.3 %
Скорость извлечения 2.5 X
Качество трека 100.0 %
CRC теста 1E49C69C
CRC копии 1E49C69C
Точное извлечение (достоверность 3) [C6867787] (AR v2)
Копирование... OK

Трек 14

Имя файла D:\Music\Soundtracks\Super Mario Odyssey Original Sound Track\Disc 3\14. Shiho Fujii & Koji Kondo - Peach's Castle.wav

Длина предзазора 0:00:00.74

Пиковый уровень 99.8 %
Скорость извлечения 12.7 X
Качество трека 100.0 %
CRC теста AEA3B782
CRC копии AEA3B782
Точное извлечение (достоверность 3) [972DBA7A] (AR v2)
Копирование... OK

Трек 15

Имя файла D:\Music\Soundtracks\Super Mario Odyssey Original Sound Track\Disc 3\15. Koji Kondo - Crazy Cap.wav

Длина предзазора 0:00:03.41

Пиковый уровень 89.1 %
Скорость извлечения 3.0 X
Качество трека 100.0 %
CRC теста 4CFC2E30
CRC копии 4CFC2E30
Точное извлечение (достоверность 3) [D2D7CCDE] (AR v2)
Копирование... OK

Трек 16

Имя файла D:\Music\Soundtracks\Super Mario Odyssey Original Sound Track\Disc 3\16. Naoto Kubo & Koji Kondo - Let's Play Slots.wav

Длина предзазора 0:00:01.37

Пиковый уровень 99.8 %
Скорость извлечения 3.1 X
Качество трека 100.0 %
CRC теста 387B2ED2
CRC копии 387B2ED2
Точное извлечение (достоверность 3) [5DF0FF94] (AR v2)
Копирование... OK

Трек 17

Имя файла D:\Music\Soundtracks\Super Mario Odyssey Original Sound Track\Disc 3\17. Shiho Fujii - RC Car Challenge.wav

Длина предзазора 0:00:01.19

Пиковый уровень 96.9 %
Скорость извлечения 3.0 X
Качество трека 99.8 %
CRC теста 7C83C6E4
CRC копии 7C83C6E4
Точное извлечение (достоверность 3) [CD0DE042] (AR v2)
Копирование... OK

Трек 18

Имя файла D:\Music\Soundtracks\Super Mario Odyssey Original Sound Track\Disc 3\18. Shiho Fujii - Koopa Trace-Walking.wav

Длина предзазора 0:00:01.22

Пиковый уровень 89.3 %
Скорость извлечения 3.2 X
Качество трека 100.0 %
CRC теста D25A9695
CRC копии D25A9695
Точное извлечение (достоверность 3) [EB691C6A] (AR v2)
Копирование... OK

Трек 19

Имя файла D:\Music\Soundtracks\Super Mario Odyssey Original Sound Track\Disc 3\19. Koji Kondo - Run, Jump, Throw! Stage 1.wav

Длина предзазора 0:00:01.67

Пиковый уровень 99.8 %
Скорость извлечения 5.5 X
Качество трека 100.0 %
CRC теста E36EBED2
CRC копии E36EBED2
Точное извлечение (достоверность 3) [9CC504DF] (AR v2)
Копирование... OK

Трек 20

Имя файла D:\Music\Soundtracks\Super Mario Odyssey Original Sound Track\Disc 3\20. Shiho Fujii - Run, Jump, Throw! Stage 2.wav

Длина предзазора 0:00:01.42

Пиковый уровень 99.8 %
Скорость извлечения 13.7 X
Качество трека 100.0 %
CRC теста A0B4E0C0
CRC копии A0B4E0C0
Точное извлечение (достоверность 3) [F1222803] (AR v2)
Копирование... OK

Трек 21

Имя файла D:\Music\Soundtracks\Super Mario Odyssey Original Sound Track\Disc 3\21. Naoto Kubo & Koji Kondo - Caves Stage.wav

Длина предзазора 0:00:02.24

Пиковый уровень 97.4 %
Скорость извлечения 13.0 X
Качество трека 99.8 %
CRC теста A17DD62B
CRC копии A17DD62B
Точное извлечение (достоверность 3) [6A786E48] (AR v2)
Копирование... OK

Трек 22

Имя файла D:\Music\Soundtracks\Super Mario Odyssey Original Sound Track\Disc 3\22. Shiho Fujii - Another World Stage.wav

Длина предзазора 0:00:02.21

Пиковый уровень 99.8 %
Скорость извлечения 14.1 X
Качество трека 100.0 %
CRC теста B32832DC
CRC копии B32832DC
Точное извлечение (достоверность 3) [BEED0ABA] (AR v2)
Копирование... OK

Трек 23

Имя файла D:\Music\Soundtracks\Super Mario Odyssey Original Sound Track\Disc 3\23. Shiho Fujii & Koji Kondo - Above the Clouds Stage.wav

Длина предзазора 0:00:01.52

Пиковый уровень 99.8 %
Скорость извлечения 14.2 X
Качество трека 100.0 %
CRC теста AEB7F84E
CRC копии AEB7F84E
Точное извлечение (достоверность 3) [D0DB3A17] (AR v2)
Копирование... OK

Трек 24

Имя файла D:\Music\Soundtracks\Super Mario Odyssey Original Sound Track\Disc 3\24. Naoto Kubo & Yuki Tsuji - Jump Up, Super Star! Music Box Version.wav

Длина предзазора 0:00:03.21

Пиковый уровень 56.9 %
Скорость извлечения 14.4 X
Качество трека 100.0 %
CRC теста C13DE8C1
CRC копии C13DE8C1
Точное извлечение (достоверность 3) [BD005BE1] (AR v2)
Копирование... OK

Трек 25

Имя файла D:\Music\Soundtracks\Super Mario Odyssey Original Sound Track\Disc 3\25. Naoto Kubo & Yuki Tsuji - Lullaby Until the End (Fossil Falls Music Box Version).wav

Длина предзазора 0:00:01.36

Пиковый уровень 50.6 %
Скорость извлечения 15.1 X
Качество трека 100.0 %
CRC теста 62541492
CRC копии 62541492
Точное извлечение (достоверность 3) [8CF03BFD] (AR v2)
Копирование... OK

Трек 26

Имя файла D:\Music\Soundtracks\Super Mario Odyssey Original Sound Track\Disc 3\26. Kate Davis & Naoto Kubo - Jump Up, Super Star!.wav

Длина предзазора 0:00:00.51

Пиковый уровень 99.8 %
Скорость извлечения 15.7 X
Качество трека 100.0 %
CRC теста 4B3C89C5
CRC копии 4B3C89C5
Точное извлечение (достоверность 3) [8D7E09F2] (AR v2)
Копирование... OK

Трек 27

Имя файла D:\Music\Soundtracks\Super Mario Odyssey Original Sound Track\Disc 3\27. Aimi Mukohara & Naoto Kubo - Jump Up, Super Star! ~Odyssey, ya see~.wav

Длина предзазора 0:00:00.37

Пиковый уровень 99.8 %
Скорость извлечения 3.8 X
Качество трека 100.0 %
CRC теста A1389CFE
CRC копии A1389CFE
Точное извлечение (достоверность 3) [D11A040F] (AR v2)
Копирование... OK

Трек 28

Имя файла D:\Music\Soundtracks\Super Mario Odyssey Original Sound Track\Disc 3\28. Aimi Mukohara & Naoto Kubo - Break Free (Lead the Way) Japanese Version.wav

Длина предзазора 0:00:00.29

Пиковый уровень 99.8 %
Скорость извлечения 3.8 X
Качество трека 100.0 %
CRC теста 2525641C
CRC копии 2525641C
Точное извлечение (достоверность 3) [B27EB789] (AR v2)
Копирование... OK

Трек 29

Имя файла D:\Music\Soundtracks\Super Mario Odyssey Original Sound Track\Disc 3\29. Naoto Kubo - Jump Up, Super Star! Karaoke.wav

Длина предзазора 0:00:02.67

Пиковый уровень 99.8 %
Скорость извлечения 4.0 X
Качество трека 100.0 %
CRC теста 0CBCEA06
CRC копии 0CBCEA06
Точное извлечение (достоверность 3) [2B52FF94] (AR v2)
Копирование... OK

Трек 30

Имя файла D:\Music\Soundtracks\Super Mario Odyssey Original Sound Track\Disc 3\30. Naoto Kubo - Jump Up, Super Star! ~Odyssey, ya see~ Karaoke.wav

Длина предзазора 0:00:00.36

Пиковый уровень 99.8 %
Скорость извлечения 4.1 X
Качество трека 100.0 %
CRC теста 79F22609
CRC копии 79F22609
Точное извлечение (достоверность 3) [13119F73] (AR v2)
Копирование... OK

Трек 31

Имя файла D:\Music\Soundtracks\Super Mario Odyssey Original Sound Track\Disc 3\31. Naoto Kubo - Break Free (Lead the Way) Karaoke.wav

Длина предзазора 0:00:00.47

Пиковый уровень 99.8 %
Скорость извлечения 4.1 X
Качество трека 99.9 %
CRC теста 642AF592
CRC копии 642AF592
Точное извлечение (достоверность 3) [E05871CC] (AR v2)
Копирование... OK

Все треки извлечены точно

Ошибок не произошло

Конец отчёта

==== Контрольная сумма отчёта 9FD7B7AF115986FCE9A252F741DD26F662AE7C858825121C7921FC383EA5F669 ====
Exact Audio Copy V1.3 from 2. September 2016

Отчёт EAC об извлечении, выполненном 22. мая 2018, 23:03

Various / SUPER MARIO ODYSSEY ORIGINAL SOUND TRACK, Disc 4

Дисковод: HL-DT-STDVDRAM GH24NS90 Adapter: 1 ID: 0

Режим чтения : Достоверность
Использование точного потока : Да
Отключение кэша аудио : Нет
Использование указателей C2 : Нет

Коррекция смещения при чтении : 6
Способность читать области Lead-in и Lead-out : Нет
Заполнение пропущенных сэмплов тишиной : Да
Удаление блоков с тишиной в начале и конце : Нет
При вычислениях CRC использовались нулевые сэмплы : Да
Интерфейс : Встроенный Win32-интерфейс для Win NT/2000
Обработка зазоров : Добавлено к предыдущему треку

Выходной формат : Пользовательский кодировщик
Выбранный битрейт : 768 kBit/s
Качество : Высокий
Добавление ID3-тега : Нет
Утилита сжатия : D:\Program Files\Exact Audio Copy\FLAC\FLAC.EXE
Дополнительные параметры : -V -8 -T "Genre=%genre%" -T "Artist=%artist%" -T "Title=%title%" -T "Album=%albumtitle%" -T "Date=%year%" -T "Tracknumber=%tracknr%" -T "Comment=%comment%" %source%

TOC извлечённого CD

Трек | Старт | Длительность | Начальный сектор | Конечный сектор
---------------------------------------------------------------------
1 | 0:00.00 | 3:06.72 | 0 | 14021
2 | 3:06.72 | 2:43.15 | 14022 | 26261
3 | 5:50.12 | 1:53.68 | 26262 | 34804
4 | 7:44.05 | 2:17.50 | 34805 | 45129
5 | 10:01.55 | 2:44.55 | 45130 | 57484
6 | 12:46.35 | 2:31.72 | 57485 | 68881
7 | 15:18.32 | 2:28.03 | 68882 | 79984
8 | 17:46.35 | 1:34.72 | 79985 | 87106
9 | 19:21.32 | 1:42.70 | 87107 | 94826
10 | 21:04.27 | 3:03.43 | 94827 | 108594
11 | 24:07.70 | 2:25.65 | 108595 | 119534
12 | 26:33.60 | 2:40.22 | 119535 | 131556
13 | 29:14.07 | 2:48.68 | 131557 | 144224
14 | 32:03.00 | 2:09.22 | 144225 | 153921
15 | 34:12.22 | 1:34.03 | 153922 | 160974
16 | 35:46.25 | 2:39.37 | 160975 | 172936
17 | 38:25.62 | 4:22.28 | 172937 | 192614
18 | 42:48.15 | 1:42.52 | 192615 | 200316
19 | 44:30.67 | 0:40.25 | 200317 | 203341
20 | 45:11.17 | 0:07.00 | 203342 | 203866
21 | 45:18.17 | 0:13.20 | 203867 | 204861
22 | 45:31.37 | 0:20.55 | 204862 | 206416
23 | 45:52.17 | 0:50.05 | 206417 | 210171
24 | 46:42.22 | 0:33.15 | 210172 | 212661
25 | 47:15.37 | 0:08.23 | 212662 | 213284
26 | 47:23.60 | 0:09.37 | 213285 | 213996
27 | 47:33.22 | 0:09.00 | 213997 | 214671
28 | 47:42.22 | 0:11.30 | 214672 | 215526
29 | 47:53.52 | 0:18.68 | 215527 | 216944
30 | 48:12.45 | 0:05.52 | 216945 | 217371
31 | 48:18.22 | 0:05.38 | 217372 | 217784
32 | 48:23.60 | 0:07.32 | 217785 | 218341
33 | 48:31.17 | 0:07.15 | 218342 | 218881
34 | 48:38.32 | 0:11.38 | 218882 | 219744
35 | 48:49.70 | 0:10.45 | 219745 | 220539
36 | 49:00.40 | 0:08.60 | 220540 | 221199
37 | 49:09.25 | 0:04.25 | 221200 | 221524
38 | 49:13.50 | 0:06.27 | 221525 | 222001
39 | 49:20.02 | 0:07.55 | 222002 | 222581
40 | 49:27.57 | 0:17.15 | 222582 | 223871
41 | 49:44.72 | 2:03.55 | 223872 | 233151
42 | 51:48.52 | 2:04.65 | 233152 | 242516
43 | 53:53.42 | 2:02.56 | 242517 | 251722

Трек 1

Имя файла D:\Music\Soundtracks\Super Mario Odyssey Original Sound Track\Disc 4\01. Naoto Kubo - Fossil Falls 8bit Version.wav

Длина предзазора 0:00:02.00

Пиковый уровень 99.8 %
Скорость извлечения 3.1 X
Качество трека 100.0 %
CRC теста 7B40FBF1
CRC копии 7B40FBF1
Точное извлечение (достоверность 3) [3D5175B3] (AR v2)
Копирование... OK

Трек 2

Имя файла D:\Music\Soundtracks\Super Mario Odyssey Original Sound Track\Disc 4\02. Naoto Kubo - Tostarena Ruins 8bit Version.wav

Длина предзазора 0:00:01.54

Пиковый уровень 86.9 %
Скорость извлечения 3.3 X
Качество трека 100.0 %
CRC теста C8B27BF5
CRC копии C8B27BF5
Точное извлечение (достоверность 3) [6C07EB25] (AR v2)
Копирование... OK

Трек 3

Имя файла D:\Music\Soundtracks\Super Mario Odyssey Original Sound Track\Disc 4\03. Naoto Kubo - Inside the Inverted Pyramid 8bit Version.wav

Длина предзазора 0:00:00.27

Пиковый уровень 92.8 %
Скорость извлечения 3.5 X
Качество трека 100.0 %
CRC теста D57682E0
CRC копии D57682E0
Точное извлечение (достоверность 3) [002F9E5E] (AR v2)
Копирование... OK

Трек 4

Имя файла D:\Music\Soundtracks\Super Mario Odyssey Original Sound Track\Disc 4\04. Naoto Kubo - Tostarena Night 8bit Version.wav

Длина предзазора 0:00:02.35

Пиковый уровень 57.9 %
Скорость извлечения 3.6 X
Качество трека 100.0 %
CRC теста 450CA190
CRC копии 450CA190
Точное извлечение (достоверность 3) [ED01677E] (AR v2)
Копирование... OK

Трек 5

Имя файла D:\Music\Soundtracks\Super Mario Odyssey Original Sound Track\Disc 4\05. Koji Kondo - Steam Gardens 8bit Version.wav

Длина предзазора 0:00:02.55

Пиковый уровень 99.7 %
Скорость извлечения 3.9 X
Качество трека 100.0 %
CRC теста 9B576282
CRC копии 9B576282
Точное извлечение (достоверность 3) [02E3E3B4] (AR v2)
Копирование... OK

Трек 6

Имя файла D:\Music\Soundtracks\Super Mario Odyssey Original Sound Track\Disc 4\06. Shiho Fujii - Lake Lamode 8bit Version.wav

Длина предзазора 0:00:02.55

Пиковый уровень 81.3 %
Скорость извлечения 4.0 X
Качество трека 100.0 %
CRC теста 3529AC16
CRC копии 3529AC16
Точное извлечение (достоверность 3) [CD917EE4] (AR v2)
Копирование... OK

Трек 7

Имя файла D:\Music\Soundtracks\Super Mario Odyssey Original Sound Track\Disc 4\07. Koji Kondo - Forgotten Isle 8bit Version.wav

Длина предзазора 0:00:02.07

Пиковый уровень 87.7 %
Скорость извлечения 4.1 X
Качество трека 99.9 %
CRC теста 8F23C0BF
CRC копии 8F23C0BF
Точное извлечение (достоверность 3) [EBBAC792] (AR v2)
Копирование... OK

Трек 8

Имя файла D:\Music\Soundtracks\Super Mario Odyssey Original Sound Track\Disc 4\08. Shiho Fujii - Run, Jump, Throw! Stage 2 8bit Version.wav

Длина предзазора 0:00:02.05

Пиковый уровень 98.8 %
Скорость извлечения 3.9 X
Качество трека 99.8 %
CRC теста 49EAC5D5
CRC копии 49EAC5D5
Точное извлечение (достоверность 3) [F862D188] (AR v2)
Копирование... OK

Трек 9

Имя файла D:\Music\Soundtracks\Super Mario Odyssey Original Sound Track\Disc 4\09. Naoto Kubo & Koji Kondo - Underground Power Plant 8bit Version.wav

Длина предзазора 0:00:01.32

Пиковый уровень 59.2 %
Скорость извлечения 2.5 X
Качество трека 99.8 %
CRC теста A4E76E30
CRC копии A4E76E30
Точное извлечение (достоверность 3) [34183943] (AR v2)
Копирование... OK

Трек 10

Имя файла D:\Music\Soundtracks\Super Mario Odyssey Original Sound Track\Disc 4\10. Naoto Kubo - Bubblaine 8bit Version.wav

Длина предзазора 0:00:01.59

Пиковый уровень 65.9 %
Скорость извлечения 4.5 X
Качество трека 99.9 %
CRC теста 0510FEDB
CRC копии 0510FEDB
Точное извлечение (достоверность 3) [54A4EF96] (AR v2)
Копирование... OK

Трек 11

Имя файла D:\Music\Soundtracks\Super Mario Odyssey Original Sound Track\Disc 4\11. Naoto Kubo - Mollusque-Lanceur Battle 8bit Version.wav

Длина предзазора 0:00:01.22

Пиковый уровень 99.8 %
Скорость извлечения 2.8 X
Качество трека 100.0 %
CRC теста 2D0811A5
CRC копии 2D0811A5
Точное извлечение (достоверность 3) [8EB64A92] (AR v2)
Копирование... OK

Трек 12

Имя файла D:\Music\Soundtracks\Super Mario Odyssey Original Sound Track\Disc 4\12. Shiho Fujii - Mount Volbono 8bit Version.wav

Длина предзазора 0:00:02.22

Пиковый уровень 95.8 %
Скорость извлечения 2.8 X
Качество трека 100.0 %
CRC теста 9604FEFB
CRC копии 9604FEFB
Точное извлечение (достоверность 3) [EBFF2911] (AR v2)
Копирование... OK

Трек 13

Имя файла D:\Music\Soundtracks\Super Mario Odyssey Original Sound Track\Disc 4\13. Koji Kondo - Bowser Castle 8bit Version.wav

Длина предзазора 0:00:02.62

Пиковый уровень 99.8 %
Скорость извлечения 5.0 X
Качество трека 100.0 %
CRC теста 22B29215
CRC копии 22B29215
Точное извлечение (достоверность 3) [4ED4F930] (AR v2)
Копирование... OK

Трек 14

Имя файла D:\Music\Soundtracks\Super Mario Odyssey Original Sound Track\Disc 4\14. Shiho Fujii - Honeylune Ridge 8bit Version.wav

Длина предзазора 0:00:03.05

Пиковый уровень 66.1 %
Скорость извлечения 2.8 X
Качество трека 100.0 %
CRC теста 72BBA95D
CRC копии 72BBA95D
Точное извлечение (достоверность 3) [57A00BEF] (AR v2)
Копирование... OK

Трек 15

Имя файла D:\Music\Soundtracks\Super Mario Odyssey Original Sound Track\Disc 4\15. Naoto Kubo - Honeylune Ridge Collapse 8bit Version.wav

Длина предзазора 0:00:02.57

Пиковый уровень 87.4 %
Скорость извлечения 3.1 X
Качество трека 100.0 %
CRC теста D5326C44
CRC копии D5326C44
Точное извлечение (достоверность 3) [32A374BE] (AR v2)
Копирование... OK

Трек 16

Имя файла D:\Music\Soundtracks\Super Mario Odyssey Original Sound Track\Disc 4\16. Naoto Kubo - Break Free (Lead The Way) 8bit Version.wav

Длина предзазора 0:00:01.52

Пиковый уровень 82.5 %
Скорость извлечения 3.2 X
Качество трека 100.0 %
CRC теста 3916973F
CRC копии 3916973F
Точное извлечение (достоверность 3) [C2F17ECF] (AR v2)
Копирование... OK

Трек 17

Имя файла D:\Music\Soundtracks\Super Mario Odyssey Original Sound Track\Disc 4\17. Naoto Kubo - Jump Up, Super Star! NDC Festival Edition 8bit Version.wav

Длина предзазора 0:00:02.27

Пиковый уровень 88.2 %
Скорость извлечения 3.4 X
Качество трека 100.0 %
CRC теста 7CF6D24B
CRC копии 7CF6D24B
Точное извлечение (достоверность 3) [5554055F] (AR v2)
Копирование... OK

Трек 18

Имя файла D:\Music\Soundtracks\Super Mario Odyssey Original Sound Track\Disc 4\18. Koji Kondo - Projection Room Above Ground.wav

Длина предзазора 0:00:03.30

Пиковый уровень 76.7 %
Скорость извлечения 5.8 X
Качество трека 100.0 %
CRC теста 89B07299
CRC копии 89B07299
Точное извлечение (достоверность 3) [A64F0B89] (AR v2)
Копирование... OK

Трек 19

Имя файла D:\Music\Soundtracks\Super Mario Odyssey Original Sound Track\Disc 4\19. Koji Kondo - Projection Room Underground.wav

Длина предзазора 0:00:00.57

Пиковый уровень 70.9 %
Скорость извлечения 5.2 X
Качество трека 100.0 %
CRC теста 3A839101
CRC копии 3A839101
Точное извлечение (достоверность 3) [E95CD425] (AR v2)
Копирование... OK

Трек 20

Имя файла D:\Music\Soundtracks\Super Mario Odyssey Original Sound Track\Disc 4\20. Naoto Kubo - YOU GOT A MOON! 2 8bit Version.wav

Длина предзазора 0:00:02.17

Пиковый уровень 45.2 %
Скорость извлечения 3.4 X
Качество трека 98.4 %
CRC теста 8D841A80
CRC копии 8D841A80
Точное извлечение (достоверность 1) [AD4DE12F] (AR v2)
Копирование... OK

Трек 21

Имя файла D:\Music\Soundtracks\Super Mario Odyssey Original Sound Track\Disc 4\21. Naoto Kubo - Dancing with New Friends!.wav

Длина предзазора 0:00:01.19

Пиковый уровень 99.8 %
Скорость извлечения 4.2 X
Качество трека 99.1 %
CRC теста 06D9E888
CRC копии 06D9E888
Точное извлечение (достоверность 3) [9493B171] (AR v2)
Копирование... OK

Трек 22

Имя файла D:\Music\Soundtracks\Super Mario Odyssey Original Sound Track\Disc 4\22. Naoto Kubo - A Relaxing Dance.wav

Длина предзазора 0:00:01.07

Пиковый уровень 85.5 %
Скорость извлечения 4.7 X
Качество трека 100.0 %
CRC теста 96655B3A
CRC копии 96655B3A
Точное извлечение (достоверность 3) [77725614] (AR v2)
Копирование... OK

Трек 23

Имя файла D:\Music\Soundtracks\Super Mario Odyssey Original Sound Track\Disc 4\23. Naoto Kubo - Rolling Canyon.wav

Длина предзазора 0:00:01.49

Пиковый уровень 95.3 %
Скорость извлечения 5.4 X
Качество трека 100.0 %
CRC теста A258E198
CRC копии A258E198
Точное извлечение (достоверность 3) [0F50A5CB] (AR v2)
Копирование... OK

Трек 24

Имя файла D:\Music\Soundtracks\Super Mario Odyssey Original Sound Track\Disc 4\24. Shigetoshi Gohara - Before Bowser Castle Courtyard.wav

Длина предзазора 0:00:02.07

Пиковый уровень 99.8 %
Скорость извлечения 5.1 X
Качество трека 99.6 %
CRC теста 1CE1DC8A
CRC копии 1CE1DC8A
Точное извлечение (достоверность 3) [C7BDE067] (AR v2)
Копирование... OK

Трек 25

Имя файла D:\Music\Soundtracks\Super Mario Odyssey Original Sound Track\Disc 4\25. Naoto Kubo - Capturing Frog!.wav

Длина предзазора 0:00:02.12

Пиковый уровень 77.1 %
Скорость извлечения 3.7 X
Качество трека 98.7 %
CRC теста 14D6A9B7
CRC копии 14D6A9B7
Точное извлечение (достоверность 1) [370695C0] (AR v2)
Копирование... OK

Трек 26

Имя файла D:\Music\Soundtracks\Super Mario Odyssey Original Sound Track\Disc 4\26. Shiho Fujii - The Odyssey's Activation.wav

Длина предзазора 0:00:02.47

Пиковый уровень 81.8 %
Скорость извлечения 3.9 X
Качество трека 100.0 %
CRC теста 6FE6ABA1
CRC копии 6FE6ABA1
Точное извлечение (достоверность 3) [DD76AD96] (AR v2)
Копирование... OK

Трек 27

Имя файла D:\Music\Soundtracks\Super Mario Odyssey Original Sound Track\Disc 4\27. Naoto Kubo & Mahito Yokota - The Odyssey Powers Up.wav

Длина предзазора 0:00:00.34

Пиковый уровень 79.9 %
Скорость извлечения 5.7 X
Качество трека 100.0 %
CRC теста 9D43F522
CRC копии 9D43F522
Точное извлечение (достоверность 3) [4015FABB] (AR v2)
Копирование... OK

Трек 28

Имя файла D:\Music\Soundtracks\Super Mario Odyssey Original Sound Track\Disc 4\28. Naoto Kubo - Water Oath Liberator.wav

Длина предзазора 0:00:01.07

Пиковый уровень 69.8 %
Скорость извлечения 5.8 X
Качество трека 100.0 %
CRC теста 4AB46C82
CRC копии 4AB46C82
Точное извлечение (достоверность 3) [A1B806E9] (AR v2)
Копирование... OK

Трек 29

Имя файла D:\Music\Soundtracks\Super Mario Odyssey Original Sound Track\Disc 4\29. Shiho Fujii - Moon Rock Liberator.wav

Длина предзазора 0:00:01.09

Пиковый уровень 99.8 %
Скорость извлечения 4.7 X
Качество трека 99.4 %
CRC теста 47212135
CRC копии 47212135
Точное извлечение (достоверность 3) [47EEA719] (AR v2)
Копирование... OK

Трек 30

Имя файла D:\Music\Soundtracks\Super Mario Odyssey Original Sound Track\Disc 4\30. Naoto Kubo - New Costume Added!.wav

Длина предзазора 0:00:01.70

Пиковый уровень 99.8 %
Скорость извлечения 5.6 X
Качество трека 100.0 %
CRC теста BD38F389
CRC копии BD38F389
Точное извлечение (достоверность 1) [D1C1E20B] (AR v2)
Копирование... OK

Трек 31

Имя файла D:\Music\Soundtracks\Super Mario Odyssey Original Sound Track\Disc 4\31. Naoto Kubo - It's the Broodals!.wav

Длина предзазора 0:00:01.50

Пиковый уровень 99.8 %
Скорость извлечения 3.0 X
Качество трека 100.0 %
CRC теста A23033DE
CRC копии A23033DE
Точное извлечение (достоверность 1) [D5D56CDC] (AR v2)
Копирование... OK

Трек 32

Имя файла D:\Music\Soundtracks\Super Mario Odyssey Original Sound Track\Disc 4\32. Naoto Kubo - Madame Broode Appears.wav

Длина предзазора 0:00:00.60

Пиковый уровень 96.6 %
Скорость извлечения 5.7 X
Качество трека 100.0 %
CRC теста 9B72BBCD
CRC копии 9B72BBCD
Точное извлечение (достоверность 3) [E86ECB44] (AR v2)
Копирование... OK

Трек 33

Имя файла D:\Music\Soundtracks\Super Mario Odyssey Original Sound Track\Disc 4\33. Koji Kondo - Klepto Appears.wav

Длина предзазора 0:00:00.52

Пиковый уровень 99.8 %
Скорость извлечения 3.4 X
Качество трека 100.0 %
CRC теста 8BF73B1E
CRC копии 8BF73B1E
Точное извлечение (достоверность 1) [277D6D2B] (AR v2)
Копирование... OK

Трек 34

Имя файла D:\Music\Soundtracks\Super Mario Odyssey Original Sound Track\Disc 4\34. Naoto Kubo - Mollusque-Lanceur Enraged.wav

Длина предзазора 0:00:00.62

Пиковый уровень 99.8 %
Скорость извлечения 4.1 X
Качество трека 100.0 %
CRC теста 677EF0F2
CRC копии 677EF0F2
Точное извлечение (достоверность 3) [5A9CE37F] (AR v2)
Копирование... OK

Трек 35

Имя файла D:\Music\Soundtracks\Super Mario Odyssey Original Sound Track\Disc 4\35. Shiho Fujii - Cookatiel Appears.wav

Длина предзазора 0:00:01.27

Пиковый уровень 99.8 %
Скорость извлечения 4.0 X
Качество трека 98.9 %
CRC теста E76149F3
CRC копии E76149F3
Точное извлечение (достоверность 3) [D3ECD9FD] (AR v2)
Копирование... OK

Трек 36

Имя файла D:\Music\Soundtracks\Super Mario Odyssey Original Sound Track\Disc 4\36. Shiho Fujii - Regarding Position.wav

Длина предзазора 0:00:02.62

Пиковый уровень 99.8 %
Скорость извлечения 3.7 X
Качество трека 100.0 %
CRC теста C7069B30
CRC копии C7069B30
Точное извлечение (достоверность 3) [C25889F0] (AR v2)
Копирование... OK

Трек 37

Имя файла D:\Music\Soundtracks\Super Mario Odyssey Original Sound Track\Disc 4\37. Shiho Fujii & Koji Kondo - Last Lap!.wav

Длина предзазора 0:00:01.47

Пиковый уровень 85.5 %
Скорость извлечения 2.7 X
Качество трека 97.4 %
CRC теста EF39D3D3
CRC копии EF39D3D3
Точное извлечение (достоверность 1) [A2E13C83] (AR v2)
Копирование... OK

Трек 38

Имя файла D:\Music\Soundtracks\Super Mario Odyssey Original Sound Track\Disc 4\38. Shiho Fujii - Victory!.wav

Длина предзазора 0:00:00.24

Пиковый уровень 99.8 %
Скорость извлечения 5.7 X
Качество трека 100.0 %
CRC теста 6ABF26A0
CRC копии 6ABF26A0
Точное извлечение (достоверность 1) [238FFFA3] (AR v2)
Копирование... OK

Трек 39

Имя файла D:\Music\Soundtracks\Super Mario Odyssey Original Sound Track\Disc 4\39. Shiho Fujii - Sorry....wav

Длина предзазора 0:00:01.22

Пиковый уровень 99.8 %
Скорость извлечения 5.8 X
Качество трека 100.0 %
CRC теста 6F826432
CRC копии 6F826432
Точное извлечение (достоверность 1) [D0E18CCB] (AR v2)
Копирование... OK

Трек 40

Имя файла D:\Music\Soundtracks\Super Mario Odyssey Original Sound Track\Disc 4\40. Naoto Kubo & Koji Kondo - CONGRATULATIONS!.wav

Длина предзазора 0:00:02.37

Пиковый уровень 99.8 %
Скорость извлечения 4.7 X
Качество трека 100.0 %
CRC теста 2C00D34F
CRC копии 2C00D34F
Точное извлечение (достоверность 3) [1BB67387] (AR v2)
Копирование... OK

Трек 41

Имя файла D:\Music\Soundtracks\Super Mario Odyssey Original Sound Track\Disc 4\41. Naoto Kubo & Shigetoshi Gohara - Tostarena's Investigation.wav

Длина предзазора 0:00:03.72

Пиковый уровень 47.9 %
Скорость извлечения 5.9 X
Качество трека 100.0 %
CRC теста 1487D7AF
CRC копии 1487D7AF
Точное извлечение (достоверность 3) [FDA16194] (AR v2)
Копирование... OK

Трек 42

Имя файла D:\Music\Soundtracks\Super Mario Odyssey Original Sound Track\Disc 4\42. Naoto Kubo & Shigetoshi Gohara - Gloomy Bubblaine.wav

Длина предзазора 0:00:00.32

Пиковый уровень 33.3 %
Скорость извлечения 3.6 X
Качество трека 100.0 %
CRC теста BA2CFFC0
CRC копии BA2CFFC0
Точное извлечение (достоверность 3) [34A2EE48] (AR v2)
Копирование... OK

Трек 43

Имя файла D:\Music\Soundtracks\Super Mario Odyssey Original Sound Track\Disc 4\43. Shiho Fujii & Shigetoshi Gohara - The Silver World of Shiveria.wav

Длина предзазора 0:00:02.09

Пиковый уровень 37.7 %
Скорость извлечения 3.5 X
Качество трека 100.0 %
CRC теста 4CB7DCEA
CRC копии 4CB7DCEA
Точное извлечение (достоверность 3) [E3FDDE32] (AR v2)
Копирование... OK

Все треки извлечены точно

Ошибок не произошло

Конец отчёта

==== Контрольная сумма отчёта C00F433342326084C2AF5D76FD495DE0B6F0D27CD7A64CB0F163F60875C89365 ====
</div>
</div>
<div class="sp-wrap">
<div class="sp-head folded">CD1</div>
<div class="sp-body">REM GENRE Game
REM DATE 2018
REM DISCID A40DBC1F
REM COMMENT "ExactAudioCopy v1.3"
CATALOG 4560109085880
PERFORMER "Various"
TITLE "SUPER MARIO ODYSSEY ORIGINAL SOUND TRACK, Disc 1"
REM COMPOSER ""
FILE "01. Naoto Kubo - Title.wav" WAVE
TRACK 01 AUDIO
TITLE "Title"
PERFORMER "Naoto Kubo"
REM COMPOSER ""
ISRC JPC401711003
INDEX 01 00:00:00
TRACK 02 AUDIO
TITLE "Opening ~In the Skies Above Peach's Castle~"
PERFORMER "Naoto Kubo"
REM COMPOSER ""
ISRC JPC401711004
INDEX 00 01:20:70
FILE "02. Naoto Kubo - Opening ~In the Skies Above Peach's Castle~.wav" WAVE
INDEX 01 00:00:00
TRACK 03 AUDIO
TITLE "Encounter with Cappy"
PERFORMER "Shiho Fujii"
REM COMPOSER ""
ISRC JPC401711005
INDEX 00 01:21:68
FILE "03. Shiho Fujii - Encounter with Cappy.wav" WAVE
INDEX 01 00:00:00
TRACK 04 AUDIO
TITLE "Bonneton"
PERFORMER "Shiho Fujii"
REM COMPOSER ""
ISRC JPC401711006
INDEX 00 01:22:01
FILE "04. Shiho Fujii - Bonneton.wav" WAVE
INDEX 01 00:00:00
TRACK 05 AUDIO
TITLE "Top-Hat Tower"
PERFORMER "Shiho Fujii"
REM COMPOSER ""
ISRC JPC401711007
INDEX 00 02:42:28
FILE "05. Shiho Fujii - Top-Hat Tower.wav" WAVE
INDEX 01 00:00:00
TRACK 06 AUDIO
TITLE "Broodals Confrontation"
PERFORMER "Naoto Kubo & Shigetoshi Gohara"
REM COMPOSER ""
ISRC JPC401711008
INDEX 00 02:10:43
FILE "06. Naoto Kubo & Shigetoshi Gohara - Broodals Confrontation.wav" WAVE
INDEX 01 00:00:00
TRACK 07 AUDIO
TITLE "Broodals Battle"
PERFORMER "Naoto Kubo"
REM COMPOSER ""
ISRC JPC401711009
INDEX 00 00:44:68
FILE "07. Naoto Kubo - Broodals Battle.wav" WAVE
INDEX 01 00:00:00
TRACK 08 AUDIO
TITLE "Beginning of the Adventure"
PERFORMER "Naoto Kubo & Shigetoshi Gohara"
REM COMPOSER ""
ISRC JPC401711010
INDEX 00 01:57:35
FILE "08. Naoto Kubo & Shigetoshi Gohara - Beginning of the Adventure.wav" WAVE
INDEX 01 00:00:00
TRACK 09 AUDIO
TITLE "Fossil Falls"
PERFORMER "Naoto Kubo"
REM COMPOSER ""
ISRC JPC401711029
INDEX 00 00:13:61
FILE "09. Naoto Kubo - Fossil Falls.wav" WAVE
INDEX 01 00:00:00
TRACK 10 AUDIO
TITLE "YOU GOT A MOON! 1"
PERFORMER "Naoto Kubo"
REM COMPOSER ""
ISRC JPC401711011
INDEX 00 04:08:06
FILE "10. Naoto Kubo - YOU GOT A MOON! 1.wav" WAVE
INDEX 01 00:00:00
TRACK 11 AUDIO
TITLE "Capturing Tyrannosaurus!"
PERFORMER "Naoto Kubo"
REM COMPOSER ""
ISRC JPC401711012
INDEX 00 00:09:28
FILE "11. Naoto Kubo - Capturing Tyrannosaurus!.wav" WAVE
INDEX 01 00:00:00
TRACK 12 AUDIO
TITLE "Madame Broode Battle"
PERFORMER "Naoto Kubo"
REM COMPOSER ""
ISRC JPC401711013
INDEX 00 01:40:68
FILE "12. Naoto Kubo - Madame Broode Battle.wav" WAVE
INDEX 01 00:00:00
TRACK 13 AUDIO
TITLE "Mario, World Traveler ~The Odyssey's First Takeoff~"
PERFORMER "Naoto Kubo"
REM COMPOSER ""
ISRC JPC401711014
INDEX 00 02:07:16
FILE "13. Naoto Kubo - Mario, World Traveler ~The Odyssey's First Takeoff~.wav" WAVE
INDEX 01 00:00:00
TRACK 14 AUDIO
TITLE "Scenario Introduction 1"
PERFORMER "Naoto Kubo"
REM COMPOSER ""
ISRC JPC401711015
INDEX 00 00:45:18
FILE "14. Naoto Kubo - Scenario Introduction 1.wav" WAVE
INDEX 01 00:00:00
TRACK 15 AUDIO
TITLE "Tostarena Ruins"
PERFORMER "Naoto Kubo"
REM COMPOSER ""
ISRC JPC401711023
INDEX 00 00:11:45
FILE "15. Naoto Kubo - Tostarena Ruins.wav" WAVE
INDEX 01 00:00:00
TRACK 16 AUDIO
TITLE "Inside the Inverted Pyramid"
PERFORMER "Naoto Kubo"
REM COMPOSER ""
ISRC JPC401711017
INDEX 00 03:53:23
FILE "16. Naoto Kubo - Inside the Inverted Pyramid.wav" WAVE
INDEX 01 00:00:00
TRACK 17 AUDIO
TITLE "Tostarena Night"
PERFORMER "Naoto Kubo"
REM COMPOSER ""
ISRC JPC401711019
INDEX 00 02:20:33
FILE "17. Naoto Kubo - Tostarena Night.wav" WAVE
INDEX 01 00:00:00
TRACK 18 AUDIO
TITLE "Riding the Jaxi"
PERFORMER "Naoto Kubo"
REM COMPOSER ""
ISRC JPC401711020
INDEX 00 02:14:73
FILE "18. Naoto Kubo - Riding the Jaxi.wav" WAVE
INDEX 01 00:00:00
TRACK 19 AUDIO
TITLE "Tostarena Battle"
PERFORMER "Naoto Kubo"
REM COMPOSER ""
ISRC JPC401711021
INDEX 00 01:58:43
FILE "19. Naoto Kubo - Tostarena Battle.wav" WAVE
INDEX 01 00:00:00
TRACK 20 AUDIO
TITLE "Tostarena Town"
PERFORMER "Naoto Kubo"
REM COMPOSER ""
ISRC JPC401711022
INDEX 00 02:42:13
FILE "20. Naoto Kubo - Tostarena Town.wav" WAVE
INDEX 01 00:00:00
TRACK 21 AUDIO
TITLE "YOU GOT A MOON! 2"
PERFORMER "Naoto Kubo"
REM COMPOSER ""
ISRC JPC401711024
INDEX 00 01:56:13
FILE "21. Naoto Kubo - YOU GOT A MOON! 2.wav" WAVE
INDEX 01 00:00:00
TRACK 22 AUDIO
TITLE "Steam Gardens"
PERFORMER "Koji Kondo"
REM COMPOSER ""
ISRC JPC401711030
INDEX 00 00:05:45
FILE "22. Koji Kondo - Steam Gardens.wav" WAVE
INDEX 01 00:00:00
TRACK 23 AUDIO
TITLE "Steam Gardens Sherm"
PERFORMER "Koji Kondo"
REM COMPOSER ""
ISRC JPC401711025
INDEX 00 03:42:11
FILE "23. Koji Kondo - Steam Gardens Sherm.wav" WAVE
INDEX 01 00:00:00
TRACK 24 AUDIO
TITLE "Torkdrift Battle"
PERFORMER "Koji Kondo"
REM COMPOSER ""
ISRC JPC401711026
INDEX 00 02:05:68
FILE "24. Koji Kondo - Torkdrift Battle.wav" WAVE
INDEX 01 00:00:00
TRACK 25 AUDIO
TITLE "Lake Lamode Underwater Passage"
PERFORMER "Shiho Fujii"
REM COMPOSER ""
ISRC JPC401711027
INDEX 00 03:26:13
FILE "25. Shiho Fujii - Lake Lamode Underwater Passage.wav" WAVE
INDEX 01 00:00:00
TRACK 26 AUDIO
TITLE "Lake Lamode"
PERFORMER "Shiho Fujii"
REM COMPOSER ""
ISRC JPC401711031
INDEX 00 02:23:03
FILE "26. Shiho Fujii - Lake Lamode.wav" WAVE
INDEX 01 00:00:00
TRACK 27 AUDIO
TITLE "Lake Lamode Above Ground"
PERFORMER "Shiho Fujii"
REM COMPOSER ""
ISRC JPC401711032
INDEX 00 03:21:01
FILE "27. Shiho Fujii - Lake Lamode Above Ground.wav" WAVE
INDEX 01 00:00:00
TRACK 28 AUDIO
TITLE "Found Bowser's Airship!"
PERFORMER "Naoto Kubo"
REM COMPOSER ""
ISRC JPC401711033
INDEX 00 01:52:35
FILE "28. Naoto Kubo - Found Bowser's Airship!.wav" WAVE
INDEX 01 00:00:00
TRACK 29 AUDIO
TITLE "Bowser Appearance"
PERFORMER "Naoto Kubo"
REM COMPOSER ""
ISRC JPC401711034
INDEX 00 00:35:08
FILE "29. Naoto Kubo - Bowser Appearance.wav" WAVE
INDEX 01 00:00:00
TRACK 30 AUDIO
TITLE "Bowser Battle 1 ~Nimbus Arena Showdown~"
PERFORMER "Shiho Fujii"
REM COMPOSER ""
ISRC JPC401711035
INDEX 00 00:56:56
FILE "30. Shiho Fujii - Bowser Battle 1 ~Nimbus Arena Showdown~.wav" WAVE
INDEX 01 00:00:00
TRACK 31 AUDIO
TITLE "Bowser Bombardment ~ The Odyssey Crashes"
PERFORMER "Naoto Kubo"
REM COMPOSER ""
ISRC JPC401711036
INDEX 00 02:48:10
FILE "31. Naoto Kubo - Bowser Bombardment ~ The Odyssey Crashes.wav" WAVE
INDEX 01 00:00:00
REM GENRE Game
REM DATE 2018
REM DISCID E9109A1F
REM COMMENT "ExactAudioCopy v1.3"
CATALOG 4560109085880
PERFORMER "Various"
TITLE "SUPER MARIO ODYSSEY ORIGINAL SOUND TRACK, Disc 2"
REM COMPOSER ""
FILE "01. Koji Kondo - Cappy Gets Taken Away!.wav" WAVE
TRACK 01 AUDIO
TITLE "Cappy Gets Taken Away!"
PERFORMER "Koji Kondo"
REM COMPOSER ""
ISRC JPC401711037
INDEX 01 00:00:00
TRACK 02 AUDIO
TITLE "Forgotten Isle"
PERFORMER "Koji Kondo"
REM COMPOSER ""
ISRC JPC401711038
INDEX 00 01:35:70
FILE "02. Koji Kondo - Forgotten Isle.wav" WAVE
INDEX 01 00:00:00
TRACK 03 AUDIO
TITLE "Scenario Introduction 2"
PERFORMER "Naoto Kubo"
REM COMPOSER ""
ISRC JPC401711039
INDEX 00 03:15:18
FILE "03. Naoto Kubo - Scenario Introduction 2.wav" WAVE
INDEX 01 00:00:00
TRACK 04 AUDIO
TITLE "New Donk City Night 1"
PERFORMER "Naoto Kubo"
REM COMPOSER ""
ISRC JPC401711040
INDEX 00 00:10:26
FILE "04. Naoto Kubo - New Donk City Night 1.wav" WAVE
INDEX 01 00:00:00
FILE "05. Naoto Kubo - New Donk City Night 2 ~City Hall~.wav" WAVE
TRACK 05 AUDIO
TITLE "New Donk City Night 2 ~City Hall~"
PERFORMER "Naoto Kubo"
REM COMPOSER ""
ISRC JPC401711041
INDEX 01 00:00:00
TRACK 06 AUDIO
TITLE "Mechawiggler Battle"
PERFORMER "Naoto Kubo"
REM COMPOSER ""
ISRC JPC401711042
INDEX 00 02:18:65
FILE "06. Naoto Kubo - Mechawiggler Battle.wav" WAVE
INDEX 01 00:00:00
TRACK 07 AUDIO
TITLE "YOU GOT A GRAND MOON!"
PERFORMER "Naoto Kubo"
REM COMPOSER ""
ISRC JPC401711043
INDEX 00 03:13:68
FILE "07. Naoto Kubo - YOU GOT A GRAND MOON!.wav" WAVE
INDEX 01 00:00:00
TRACK 08 AUDIO
TITLE "New Donk City"
PERFORMER "Naoto Kubo"
REM COMPOSER ""
ISRC JPC401711016
INDEX 00 00:15:26
FILE "08. Naoto Kubo - New Donk City.wav" WAVE
INDEX 01 00:00:00
TRACK 09 AUDIO
TITLE "Band Performance (Super Mario Brothers Above Ground)"
PERFORMER "Naoto Kubo & Koji Kondo"
REM COMPOSER ""
ISRC JPC401711044
INDEX 00 03:21:39
FILE "09. Naoto Kubo & Koji Kondo - Band Performance (Super Mario Brothers Above Ground).wav" WAVE
INDEX 01 00:00:00
TRACK 10 AUDIO
TITLE "Poolside Rest"
PERFORMER "Naoto Kubo & Koji Kondo"
REM COMPOSER ""
ISRC JPC401711046
INDEX 00 02:13:71
FILE "10. Naoto Kubo & Koji Kondo - Poolside Rest.wav" WAVE
INDEX 01 00:00:00
TRACK 11 AUDIO
TITLE "Underground Power Plant"
PERFORMER "Naoto Kubo & Koji Kondo"
REM COMPOSER ""
ISRC JPC401711048
INDEX 00 02:51:46
FILE "11. Naoto Kubo & Koji Kondo - Underground Power Plant.wav" WAVE
INDEX 01 00:00:00
TRACK 12 AUDIO
TITLE "Jump Up, Super Star! NDC Festival Edition"
PERFORMER "Naoto Kubo"
REM COMPOSER ""
ISRC JPC401711018
INDEX 00 02:10:33
FILE "12. Naoto Kubo - Jump Up, Super Star! NDC Festival Edition.wav" WAVE
INDEX 01 00:00:00
TRACK 13 AUDIO
TITLE "Traditional Festival Ends!"
PERFORMER "Naoto Kubo"
REM COMPOSER ""
ISRC JPC401711049
INDEX 00 04:18:61
FILE "13. Naoto Kubo - Traditional Festival Ends!.wav" WAVE
INDEX 01 00:00:00
TRACK 14 AUDIO
TITLE "Shiveria Town"
PERFORMER "Shiho Fujii"
REM COMPOSER ""
ISRC JPC401711047
INDEX 00 00:15:34
FILE "14. Shiho Fujii - Shiveria Town.wav" WAVE
INDEX 01 00:00:00
TRACK 15 AUDIO
TITLE "Ice Cave"
PERFORMER "Naoto Kubo"
REM COMPOSER ""
ISRC JPC401711050
INDEX 00 02:42:44
FILE "15. Naoto Kubo - Ice Cave.wav" WAVE
INDEX 01 00:00:00
TRACK 16 AUDIO
TITLE "Snowline Circuit"
PERFORMER "Shiho Fujii"
REM COMPOSER ""
ISRC JPC401711051
INDEX 00 01:59:59
FILE "16. Shiho Fujii - Snowline Circuit.wav" WAVE
INDEX 01 00:00:00
TRACK 17 AUDIO
TITLE "Bound Bowl GP"
PERFORMER "Shiho Fujii"
REM COMPOSER ""
ISRC JPC401711052
INDEX 00 01:29:31
FILE "17. Shiho Fujii - Bound Bowl GP.wav" WAVE
INDEX 01 00:00:00
TRACK 18 AUDIO
TITLE "Race Result"
PERFORMER "Shiho Fujii"
REM COMPOSER ""
ISRC JPC401711053
INDEX 00 01:30:46
FILE "18. Shiho Fujii - Race Result.wav" WAVE
INDEX 01 00:00:00
TRACK 19 AUDIO
TITLE "Bubblaine"
PERFORMER "Naoto Kubo"
REM COMPOSER ""
ISRC JPC401711054
INDEX 00 00:35:41
FILE "19. Naoto Kubo - Bubblaine.wav" WAVE
INDEX 01 00:00:00
TRACK 20 AUDIO
TITLE "Bubblaine Underwater"
PERFORMER "Naoto Kubo"
REM COMPOSER ""
ISRC JPC401711055
INDEX 00 04:03:71
FILE "20. Naoto Kubo - Bubblaine Underwater.wav" WAVE
INDEX 01 00:00:00
TRACK 21 AUDIO
TITLE "Mollusque-Lanceur Battle"
PERFORMER "Naoto Kubo"
REM COMPOSER ""
ISRC JPC401711056
INDEX 00 02:22:46
FILE "21. Naoto Kubo - Mollusque-Lanceur Battle.wav" WAVE
INDEX 01 00:00:00
TRACK 22 AUDIO
TITLE "Scenario Introduction 3"
PERFORMER "Naoto Kubo"
REM COMPOSER ""
ISRC JPC401711057
INDEX 00 03:26:29
FILE "22. Naoto Kubo - Scenario Introduction 3.wav" WAVE
INDEX 01 00:00:00
TRACK 23 AUDIO
TITLE "Mount Volbono"
PERFORMER "Shiho Fujii"
REM COMPOSER ""
ISRC JPC401711058
INDEX 00 00:09:59
FILE "23. Shiho Fujii - Mount Volbono.wav" WAVE
INDEX 01 00:00:00
TRACK 24 AUDIO
TITLE "Peronza Plaza"
PERFORMER "Shiho Fujii"
REM COMPOSER ""
ISRC JPC401711059
INDEX 00 03:32:03
FILE "24. Shiho Fujii - Peronza Plaza.wav" WAVE
INDEX 01 00:00:00
TRACK 25 AUDIO
TITLE "Cookatiel Battle"
PERFORMER "Shiho Fujii"
REM COMPOSER ""
ISRC JPC401711060
INDEX 00 03:06:21
FILE "25. Shiho Fujii - Cookatiel Battle.wav" WAVE
INDEX 01 00:00:00
TRACK 26 AUDIO
TITLE "Ruined Dragon Appears"
PERFORMER "Naoto Kubo"
REM COMPOSER ""
ISRC JPC401711061
INDEX 00 02:56:46
FILE "26. Naoto Kubo - Ruined Dragon Appears.wav" WAVE
INDEX 01 00:00:00
TRACK 27 AUDIO
TITLE "Ruined Dragon Battle"
PERFORMER "Shiho Fujii"
REM COMPOSER ""
ISRC JPC401711062
INDEX 00 00:51:04
FILE "27. Shiho Fujii - Ruined Dragon Battle.wav" WAVE
INDEX 01 00:00:00
TRACK 28 AUDIO
TITLE "Bowser Castle"
PERFORMER "Koji Kondo"
REM COMPOSER ""
ISRC JPC401711045
INDEX 00 02:54:64
FILE "28. Koji Kondo - Bowser Castle.wav" WAVE
INDEX 01 00:00:00
TRACK 29 AUDIO
TITLE "Bowser Castle Courtyard"
PERFORMER "Koji Kondo"
REM COMPOSER ""
ISRC JPC401711063
INDEX 00 03:31:01
FILE "29. Koji Kondo - Bowser Castle Courtyard.wav" WAVE
INDEX 01 00:00:00
TRACK 30 AUDIO
TITLE "Bowser Flies to the Moon"
PERFORMER "Naoto Kubo"
REM COMPOSER ""
ISRC JPC401711064
INDEX 00 02:56:03
FILE "30. Naoto Kubo - Bowser Flies to the Moon.wav" WAVE
INDEX 01 00:00:00
FILE "31. Koji Kondo - RoboBrood Battle.wav" WAVE
TRACK 31 AUDIO
TITLE "RoboBrood Battle"
PERFORMER "Koji Kondo"
REM COMPOSER ""
ISRC JPC401711065
INDEX 01 00:00:00
REM GENRE Game
REM DATE 2018
REM DISCID B80F481F
REM COMMENT "ExactAudioCopy v1.3"
CATALOG 4560109085880
PERFORMER "Various"
TITLE "SUPER MARIO ODYSSEY ORIGINAL SOUND TRACK, Disc 3"
REM COMPOSER ""
FILE "01. Naoto Kubo - To the Next Kingdom.wav" WAVE
TRACK 01 AUDIO
TITLE "To the Next Kingdom"
PERFORMER "Naoto Kubo"
REM COMPOSER ""
ISRC JPC401711066
INDEX 01 00:00:00
TRACK 02 AUDIO
TITLE "The Odyssey Goes to the Moon"
PERFORMER "Naoto Kubo"
REM COMPOSER ""
ISRC JPC401711067
INDEX 00 00:52:35
FILE "02. Naoto Kubo - The Odyssey Goes to the Moon.wav" WAVE
INDEX 01 00:00:00
TRACK 03 AUDIO
TITLE "Honeylune Ridge"
PERFORMER "Shiho Fujii"
REM COMPOSER ""
ISRC JPC401711068
INDEX 00 00:26:05
FILE "03. Shiho Fujii - Honeylune Ridge.wav" WAVE
INDEX 01 00:00:00
TRACK 04 AUDIO
TITLE "Underground Moon Caverns"
PERFORMER "Naoto Kubo"
REM COMPOSER ""
ISRC JPC401711069
INDEX 00 02:29:18
FILE "04. Naoto Kubo - Underground Moon Caverns.wav" WAVE
INDEX 01 00:00:00
TRACK 05 AUDIO
TITLE "Wedding Hall"
PERFORMER "Shiho Fujii"
REM COMPOSER ""
ISRC JPC401711070
INDEX 00 02:50:33
FILE "05. Shiho Fujii - Wedding Hall.wav" WAVE
INDEX 01 00:00:00
TRACK 06 AUDIO
TITLE "Confrontation"
PERFORMER "Shiho Fujii"
REM COMPOSER ""
ISRC JPC401711071
INDEX 00 02:16:20
FILE "06. Shiho Fujii - Confrontation.wav" WAVE
INDEX 01 00:00:00
TRACK 07 AUDIO
TITLE "Bowser Battle 2 ~Final Battlefield~"
PERFORMER "Naoto Kubo"
REM COMPOSER ""
ISRC JPC401711072
INDEX 00 00:22:53
FILE "07. Naoto Kubo - Bowser Battle 2 ~Final Battlefield~.wav" WAVE
INDEX 01 00:00:00
TRACK 08 AUDIO
TITLE "Princess Peach Rescue...?"
PERFORMER "Naoto Kubo & Koji Kondo"
REM COMPOSER ""
ISRC JPC401711137
INDEX 00 03:30:13
FILE "08. Naoto Kubo & Koji Kondo - Princess Peach Rescue....wav" WAVE
INDEX 01 00:00:00
TRACK 09 AUDIO
TITLE "Capturing Bowser!"
PERFORMER "Shiho Fujii"
REM COMPOSER ""
ISRC JPC401711073
INDEX 00 00:14:00
FILE "09. Shiho Fujii - Capturing Bowser!.wav" WAVE
INDEX 01 00:00:00
FILE "10. Naoto Kubo - Honeylune Ridge Collapse.wav" WAVE
TRACK 10 AUDIO
TITLE "Honeylune Ridge Collapse"
PERFORMER "Naoto Kubo"
REM COMPOSER ""
ISRC JPC401711074
INDEX 01 00:00:00
TRACK 11 AUDIO
TITLE "Break Free (Lead the Way)"
PERFORMER "Kate Davis & Naoto Kubo"
REM COMPOSER ""
ISRC JPC401711028
INDEX 00 02:00:26
FILE "11. Kate Davis & Naoto Kubo - Break Free (Lead the Way).wav" WAVE
INDEX 01 00:00:00
TRACK 12 AUDIO
TITLE "Staff Roll"
PERFORMER "Naoto Kubo"
REM COMPOSER ""
ISRC JPC401711075
INDEX 00 02:57:36
FILE "12. Naoto Kubo - Staff Roll.wav" WAVE
INDEX 01 00:00:00
TRACK 13 AUDIO
TITLE "Around Peach's Castle"
PERFORMER "Shigetoshi Gohara"
REM COMPOSER ""
ISRC JPC401711076
INDEX 00 03:01:29
FILE "13. Shigetoshi Gohara - Around Peach's Castle.wav" WAVE
INDEX 01 00:00:00
TRACK 14 AUDIO
TITLE "Peach's Castle"
PERFORMER "Shiho Fujii & Koji Kondo"
REM COMPOSER ""
ISRC JPC401711077
INDEX 00 00:31:38
FILE "14. Shiho Fujii & Koji Kondo - Peach's Castle.wav" WAVE
INDEX 01 00:00:00
TRACK 15 AUDIO
TITLE "Crazy Cap"
PERFORMER "Koji Kondo"
REM COMPOSER ""
ISRC JPC401711078
INDEX 00 02:26:21
FILE "15. Koji Kondo - Crazy Cap.wav" WAVE
INDEX 01 00:00:00
TRACK 16 AUDIO
TITLE "Let's Play Slots"
PERFORMER "Naoto Kubo & Koji Kondo"
REM COMPOSER ""
ISRC JPC401711079
INDEX 00 03:08:51
FILE "16. Naoto Kubo & Koji Kondo - Let's Play Slots.wav" WAVE
INDEX 01 00:00:00
TRACK 17 AUDIO
TITLE "RC Car Challenge"
PERFORMER "Shiho Fujii"
REM COMPOSER ""
ISRC JPC401711080
INDEX 00 00:26:56
FILE "17. Shiho Fujii - RC Car Challenge.wav" WAVE
INDEX 01 00:00:00
TRACK 18 AUDIO
TITLE "Koopa Trace-Walking"
PERFORMER "Shiho Fujii"
REM COMPOSER ""
ISRC JPC401711081
INDEX 00 01:24:53
FILE "18. Shiho Fujii - Koopa Trace-Walking.wav" WAVE
INDEX 01 00:00:00
TRACK 19 AUDIO
TITLE "Run, Jump, Throw! Stage 1"
PERFORMER "Koji Kondo"
REM COMPOSER ""
ISRC JPC401711082
INDEX 00 00:38:48
FILE "19. Koji Kondo - Run, Jump, Throw! Stage 1.wav" WAVE
INDEX 01 00:00:00
TRACK 20 AUDIO
TITLE "Run, Jump, Throw! Stage 2"
PERFORMER "Shiho Fujii"
REM COMPOSER ""
ISRC JPC401711083
INDEX 00 02:22:28
FILE "20. Shiho Fujii - Run, Jump, Throw! Stage 2.wav" WAVE
INDEX 01 00:00:00
TRACK 21 AUDIO
TITLE "Caves Stage"
PERFORMER "Naoto Kubo & Koji Kondo"
REM COMPOSER ""
ISRC JPC401711084
INDEX 00 02:03:53
FILE "21. Naoto Kubo & Koji Kondo - Caves Stage.wav" WAVE
INDEX 01 00:00:00
TRACK 22 AUDIO
TITLE "Another World Stage"
PERFORMER "Shiho Fujii"
REM COMPOSER ""
ISRC JPC401711089
INDEX 00 01:02:34
FILE "22. Shiho Fujii - Another World Stage.wav" WAVE
INDEX 01 00:00:00
TRACK 23 AUDIO
TITLE "Above the Clouds Stage"
PERFORMER "Shiho Fujii & Koji Kondo"
REM COMPOSER ""
ISRC JPC401711090
INDEX 00 02:07:01
FILE "23. Shiho Fujii & Koji Kondo - Above the Clouds Stage.wav" WAVE
INDEX 01 00:00:00
TRACK 24 AUDIO
TITLE "Jump Up, Super Star! Music Box Version"
PERFORMER "Naoto Kubo & Yuki Tsuji"
REM COMPOSER ""
ISRC JPC401711091
INDEX 00 01:36:61
FILE "24. Naoto Kubo & Yuki Tsuji - Jump Up, Super Star! Music Box Version.wav" WAVE
INDEX 01 00:00:00
TRACK 25 AUDIO
TITLE "Lullaby Until the End (Fossil Falls Music Box Version)"
PERFORMER "Naoto Kubo & Yuki Tsuji"
REM COMPOSER ""
ISRC JPC401711092
INDEX 00 01:39:19
FILE "25. Naoto Kubo & Yuki Tsuji - Lullaby Until the End (Fossil Falls Music Box Version).wav" WAVE
INDEX 01 00:00:00
TRACK 26 AUDIO
TITLE "Jump Up, Super Star!"
PERFORMER "Kate Davis & Naoto Kubo"
REM COMPOSER ""
ISRC JPC401711093
INDEX 00 01:27:04
FILE "26. Kate Davis & Naoto Kubo - Jump Up, Super Star!.wav" WAVE
INDEX 01 00:00:00
TRACK 27 AUDIO
TITLE "Jump Up, Super Star! ~Odyssey, ya see~"
PERFORMER "Aimi Mukohara & Naoto Kubo"
REM COMPOSER ""
ISRC JPC401711085
INDEX 00 04:07:41
FILE "27. Aimi Mukohara & Naoto Kubo - Jump Up, Super Star! ~Odyssey, ya see~.wav" WAVE
INDEX 01 00:00:00
TRACK 28 AUDIO
TITLE "Break Free (Lead the Way) Japanese Version"
PERFORMER "Aimi Mukohara & Naoto Kubo"
REM COMPOSER ""
ISRC JPC401711088
INDEX 00 04:07:53
FILE "28. Aimi Mukohara & Naoto Kubo - Break Free (Lead the Way) Japanese Version.wav" WAVE
INDEX 01 00:00:00
TRACK 29 AUDIO
TITLE "Jump Up, Super Star! Karaoke"
PERFORMER "Naoto Kubo"
REM COMPOSER ""
ISRC JPC401711086
INDEX 00 02:57:16
FILE "29. Naoto Kubo - Jump Up, Super Star! Karaoke.wav" WAVE
INDEX 01 00:00:00
TRACK 30 AUDIO
TITLE "Jump Up, Super Star! ~Odyssey, ya see~ Karaoke"
PERFORMER "Naoto Kubo"
REM COMPOSER ""
ISRC JPC401711087
INDEX 00 04:07:54
FILE "30. Naoto Kubo - Jump Up, Super Star! ~Odyssey, ya see~ Karaoke.wav" WAVE
INDEX 01 00:00:00
TRACK 31 AUDIO
TITLE "Break Free (Lead the Way) Karaoke"
PERFORMER "Naoto Kubo"
REM COMPOSER ""
ISRC JPC401711094
INDEX 00 04:07:46
FILE "31. Naoto Kubo - Break Free (Lead the Way) Karaoke.wav" WAVE
INDEX 01 00:00:00
REM GENRE Game
REM DATE 2018
REM DISCID A80D1C2B
REM COMMENT "ExactAudioCopy v1.3"
CATALOG 4560109085880
PERFORMER "Various"
TITLE "SUPER MARIO ODYSSEY ORIGINAL SOUND TRACK, Disc 4"
REM COMPOSER ""
FILE "01. Naoto Kubo - Fossil Falls 8bit Version.wav" WAVE
TRACK 01 AUDIO
TITLE "Fossil Falls 8bit Version"
PERFORMER "Naoto Kubo"
REM COMPOSER ""
ISRC JPC401711095
INDEX 01 00:00:00
TRACK 02 AUDIO
TITLE "Tostarena Ruins 8bit Version"
PERFORMER "Naoto Kubo"
REM COMPOSER ""
ISRC JPC401711096
INDEX 00 03:05:18
FILE "02. Naoto Kubo - Tostarena Ruins 8bit Version.wav" WAVE
INDEX 01 00:00:00
TRACK 03 AUDIO
TITLE "Inside the Inverted Pyramid 8bit Version"
PERFORMER "Naoto Kubo"
REM COMPOSER ""
ISRC JPC401711097
INDEX 00 02:42:63
FILE "03. Naoto Kubo - Inside the Inverted Pyramid 8bit Version.wav" WAVE
INDEX 01 00:00:00
TRACK 04 AUDIO
TITLE "Tostarena Night 8bit Version"
PERFORMER "Naoto Kubo"
REM COMPOSER ""
ISRC JPC401711098
INDEX 00 01:51:33
FILE "04. Naoto Kubo - Tostarena Night 8bit Version.wav" WAVE
INDEX 01 00:00:00
TRACK 05 AUDIO
TITLE "Steam Gardens 8bit Version"
PERFORMER "Koji Kondo"
REM COMPOSER ""
ISRC JPC401711099
INDEX 00 02:14:70
FILE "05. Koji Kondo - Steam Gardens 8bit Version.wav" WAVE
INDEX 01 00:00:00
TRACK 06 AUDIO
TITLE "Lake Lamode 8bit Version"
PERFORMER "Shiho Fujii"
REM COMPOSER ""
ISRC JPC401711100
INDEX 00 02:42:00
FILE "06. Shiho Fujii - Lake Lamode 8bit Version.wav" WAVE
INDEX 01 00:00:00
TRACK 07 AUDIO
TITLE "Forgotten Isle 8bit Version"
PERFORMER "Koji Kondo"
REM COMPOSER ""
ISRC JPC401711101
INDEX 00 02:29:65
FILE "07. Koji Kondo - Forgotten Isle 8bit Version.wav" WAVE
INDEX 01 00:00:00
TRACK 08 AUDIO
TITLE "Run, Jump, Throw! Stage 2 8bit Version"
PERFORMER "Shiho Fujii"
REM COMPOSER ""
ISRC JPC401711102
INDEX 00 02:25:73
FILE "08. Shiho Fujii - Run, Jump, Throw! Stage 2 8bit Version.wav" WAVE
INDEX 01 00:00:00
TRACK 09 AUDIO
TITLE "Underground Power Plant 8bit Version"
PERFORMER "Naoto Kubo & Koji Kondo"
REM COMPOSER ""
ISRC JPC401711103
INDEX 00 01:33:40
FILE "09. Naoto Kubo & Koji Kondo - Underground Power Plant 8bit Version.wav" WAVE
INDEX 01 00:00:00
TRACK 10 AUDIO
TITLE "Bubblaine 8bit Version"
PERFORMER "Naoto Kubo"
REM COMPOSER ""
ISRC JPC401711104
INDEX 00 01:41:11
FILE "10. Naoto Kubo - Bubblaine 8bit Version.wav" WAVE
INDEX 01 00:00:00
TRACK 11 AUDIO
TITLE "Mollusque-Lanceur Battle 8bit Version"
PERFORMER "Naoto Kubo"
REM COMPOSER ""
ISRC JPC401711105
INDEX 00 03:02:21
FILE "11. Naoto Kubo - Mollusque-Lanceur Battle 8bit Version.wav" WAVE
INDEX 01 00:00:00
TRACK 12 AUDIO
TITLE "Mount Volbono 8bit Version"
PERFORMER "Shiho Fujii"
REM COMPOSER ""
ISRC JPC401711106
INDEX 00 02:23:43
FILE "12. Shiho Fujii - Mount Volbono 8bit Version.wav" WAVE
INDEX 01 00:00:00
TRACK 13 AUDIO
TITLE "Bowser Castle 8bit Version"
PERFORMER "Koji Kondo"
REM COMPOSER ""
ISRC JPC401711107
INDEX 00 02:37:35
FILE "13. Koji Kondo - Bowser Castle 8bit Version.wav" WAVE
INDEX 01 00:00:00
TRACK 14 AUDIO
TITLE "Honeylune Ridge 8bit Version"
PERFORMER "Shiho Fujii"
REM COMPOSER ""
ISRC JPC401711108
INDEX 00 02:45:63
FILE "14. Shiho Fujii - Honeylune Ridge 8bit Version.wav" WAVE
INDEX 01 00:00:00
TRACK 15 AUDIO
TITLE "Honeylune Ridge Collapse 8bit Version"
PERFORMER "Naoto Kubo"
REM COMPOSER ""
ISRC JPC401711109
INDEX 00 02:06:40
FILE "15. Naoto Kubo - Honeylune Ridge Collapse 8bit Version.wav" WAVE
INDEX 01 00:00:00
TRACK 16 AUDIO
TITLE "Break Free (Lead The Way) 8bit Version"
PERFORMER "Naoto Kubo"
REM COMPOSER ""
ISRC JPC401711110
INDEX 00 01:32:26
FILE "16. Naoto Kubo - Break Free (Lead The Way) 8bit Version.wav" WAVE
INDEX 01 00:00:00
TRACK 17 AUDIO
TITLE "Jump Up, Super Star! NDC Festival Edition 8bit Version"
PERFORMER "Naoto Kubo"
REM COMPOSER ""
ISRC JPC401711111
INDEX 00 02:37:10
FILE "17. Naoto Kubo - Jump Up, Super Star! NDC Festival Edition 8bit Version.wav" WAVE
INDEX 01 00:00:00
TRACK 18 AUDIO
TITLE "Projection Room Above Ground"
PERFORMER "Koji Kondo"
REM COMPOSER ""
ISRC JPC401711112
INDEX 00 04:18:73
FILE "18. Koji Kondo - Projection Room Above Ground.wav" WAVE
INDEX 01 00:00:00
TRACK 19 AUDIO
TITLE "Projection Room Underground"
PERFORMER "Koji Kondo"
REM COMPOSER ""
ISRC JPC401711113
INDEX 00 01:41:70
FILE "19. Koji Kondo - Projection Room Underground.wav" WAVE
INDEX 01 00:00:00
TRACK 20 AUDIO
TITLE "YOU GOT A MOON! 2 8bit Version"
PERFORMER "Naoto Kubo"
REM COMPOSER ""
ISRC JPC401711114
INDEX 00 00:38:08
FILE "20. Naoto Kubo - YOU GOT A MOON! 2 8bit Version.wav" WAVE
INDEX 01 00:00:00
TRACK 21 AUDIO
TITLE "Dancing with New Friends!"
PERFORMER "Naoto Kubo"
REM COMPOSER ""
ISRC JPC401711115
INDEX 00 00:05:56
FILE "21. Naoto Kubo - Dancing with New Friends!.wav" WAVE
INDEX 01 00:00:00
TRACK 22 AUDIO
TITLE "A Relaxing Dance"
PERFORMER "Naoto Kubo"
REM COMPOSER ""
ISRC JPC401711116
INDEX 00 00:12:13
FILE "22. Naoto Kubo - A Relaxing Dance.wav" WAVE
INDEX 01 00:00:00
TRACK 23 AUDIO
TITLE "Rolling Canyon"
PERFORMER "Naoto Kubo"
REM COMPOSER ""
ISRC JPC401711117
INDEX 00 00:19:06
FILE "23. Naoto Kubo - Rolling Canyon.wav" WAVE
INDEX 01 00:00:00
TRACK 24 AUDIO
TITLE "Before Bowser Castle Courtyard"
PERFORMER "Shigetoshi Gohara"
REM COMPOSER ""
ISRC JPC401711118
INDEX 00 00:47:73
FILE "24. Shigetoshi Gohara - Before Bowser Castle Courtyard.wav" WAVE
INDEX 01 00:00:00
TRACK 25 AUDIO
TITLE "Capturing Frog!"
PERFORMER "Naoto Kubo"
REM COMPOSER ""
ISRC JPC401711119
INDEX 00 00:31:03
FILE "25. Naoto Kubo - Capturing Frog!.wav" WAVE
INDEX 01 00:00:00
TRACK 26 AUDIO
TITLE "The Odyssey's Activation"
PERFORMER "Shiho Fujii"
REM COMPOSER ""
ISRC JPC401711120
INDEX 00 00:05:51
FILE "26. Shiho Fujii - The Odyssey's Activation.wav" WAVE
INDEX 01 00:00:00
TRACK 27 AUDIO
TITLE "The Odyssey Powers Up"
PERFORMER "Naoto Kubo & Mahito Yokota"
REM COMPOSER ""
ISRC JPC401711121
INDEX 00 00:09:03
FILE "27. Naoto Kubo & Mahito Yokota - The Odyssey Powers Up.wav" WAVE
INDEX 01 00:00:00
TRACK 28 AUDIO
TITLE "Water Oath Liberator"
PERFORMER "Naoto Kubo"
REM COMPOSER ""
ISRC JPC401711122
INDEX 00 00:07:68
FILE "28. Naoto Kubo - Water Oath Liberator.wav" WAVE
INDEX 01 00:00:00
TRACK 29 AUDIO
TITLE "Moon Rock Liberator"
PERFORMER "Shiho Fujii"
REM COMPOSER ""
ISRC JPC401711123
INDEX 00 00:10:21
FILE "29. Shiho Fujii - Moon Rock Liberator.wav" WAVE
INDEX 01 00:00:00
TRACK 30 AUDIO
TITLE "New Costume Added!"
PERFORMER "Naoto Kubo"
REM COMPOSER ""
ISRC JPC401711124
INDEX 00 00:16:73
FILE "30. Naoto Kubo - New Costume Added!.wav" WAVE
INDEX 01 00:00:00
TRACK 31 AUDIO
TITLE "It's the Broodals!"
PERFORMER "Naoto Kubo"
REM COMPOSER ""
ISRC JPC401711125
INDEX 00 00:04:02
FILE "31. Naoto Kubo - It's the Broodals!.wav" WAVE
INDEX 01 00:00:00
TRACK 32 AUDIO
TITLE "Madame Broode Appears"
PERFORMER "Naoto Kubo"
REM COMPOSER ""
ISRC JPC401711126
INDEX 00 00:04:53
FILE "32. Naoto Kubo - Madame Broode Appears.wav" WAVE
INDEX 01 00:00:00
TRACK 33 AUDIO
TITLE "Klepto Appears"
PERFORMER "Koji Kondo"
REM COMPOSER ""
ISRC JPC401711127
INDEX 00 00:06:55
FILE "33. Koji Kondo - Klepto Appears.wav" WAVE
INDEX 01 00:00:00
TRACK 34 AUDIO
TITLE "Mollusque-Lanceur Enraged"
PERFORMER "Naoto Kubo"
REM COMPOSER ""
ISRC JPC401711128
INDEX 00 00:06:28
FILE "34. Naoto Kubo - Mollusque-Lanceur Enraged.wav" WAVE
INDEX 01 00:00:00
TRACK 35 AUDIO
TITLE "Cookatiel Appears"
PERFORMER "Shiho Fujii"
REM COMPOSER ""
ISRC JPC401711129
INDEX 00 00:10:11
FILE "35. Shiho Fujii - Cookatiel Appears.wav" WAVE
INDEX 01 00:00:00
TRACK 36 AUDIO
TITLE "Regarding Position"
PERFORMER "Shiho Fujii"
REM COMPOSER ""
ISRC JPC401711130
INDEX 00 00:07:58
FILE "36. Shiho Fujii - Regarding Position.wav" WAVE
INDEX 01 00:00:00
TRACK 37 AUDIO
TITLE "Last Lap!"
PERFORMER "Shiho Fujii & Koji Kondo"
REM COMPOSER ""
ISRC JPC401711131
INDEX 00 00:07:13
FILE "37. Shiho Fujii & Koji Kondo - Last Lap!.wav" WAVE
INDEX 01 00:00:00
TRACK 38 AUDIO
TITLE "Victory!"
PERFORMER "Shiho Fujii"
REM COMPOSER ""
ISRC JPC401711132
INDEX 00 00:04:01
FILE "38. Shiho Fujii - Victory!.wav" WAVE
INDEX 01 00:00:00
TRACK 39 AUDIO
TITLE "Sorry..."
PERFORMER "Shiho Fujii"
REM COMPOSER ""
ISRC JPC401711133
INDEX 00 00:05:05
FILE "39. Shiho Fujii - Sorry....wav" WAVE
INDEX 01 00:00:00
TRACK 40 AUDIO
TITLE "CONGRATULATIONS!"
PERFORMER "Naoto Kubo & Koji Kondo"
REM COMPOSER ""
ISRC JPC401711134
INDEX 00 00:05:18
FILE "40. Naoto Kubo & Koji Kondo - CONGRATULATIONS!.wav" WAVE
INDEX 01 00:00:00
TRACK 41 AUDIO
TITLE "Tostarena's Investigation"
PERFORMER "Naoto Kubo & Shigetoshi Gohara"
REM COMPOSER ""
ISRC JPC401711135
INDEX 00 00:13:18
FILE "41. Naoto Kubo & Shigetoshi Gohara - Tostarena's Investigation.wav" WAVE
INDEX 01 00:00:00
TRACK 42 AUDIO
TITLE "Gloomy Bubblaine"
PERFORMER "Naoto Kubo & Shigetoshi Gohara"
REM COMPOSER ""
ISRC JPC401711136
INDEX 00 02:03:23
FILE "42. Naoto Kubo & Shigetoshi Gohara - Gloomy Bubblaine.wav" WAVE
INDEX 01 00:00:00
TRACK 43 AUDIO
TITLE "The Silver World of Shiveria"
PERFORMER "Shiho Fujii & Shigetoshi Gohara"
REM COMPOSER ""
ISRC JPC401711137
INDEX 00 02:02:56
FILE "43. Shiho Fujii & Shigetoshi Gohara - The Silver World of Shiveria.wav" WAVE
INDEX 01 00:00:00
</div>
</div> Дополнительно: Discogs | MP3

Трекер:  [ 23-Май-2018 22:36 ]

  

Скачать .torrent

Размер .torrent файла 27 KB


Размер: 1.38 GB
Хэш (hash) релиза: 7014ede396e73598f42412f9bb1709790e7f8c33

Торренты, похожие на Super Mario Odyssey Original Sound Track скачать торрент

Форум Название Автор Размер S L Добавлен
Саундтреки к играм (mp3) ·· (Score) Super Mario Odyssey Original Sound Track (Various) - 2018, MP3, 320 kbps Galfimbul 602190262574 MB 0 0 1527104185

22:36

23-Май-18

Еще никто не оставлял запись к записи скачать торрент Super Mario Odyssey Original Sound Track . Будь первым!

!Обратная связь