Euphoria | Episode 24 | Infinite Challenge The 13 Year Special

Скачать через торрент [VIDEO] Укротительница тигров бесплатно русская версия torrent активатор

Статистика раздачи
Размер:  827 MB   |    Зарегистрирован:  1 месяц 30 дней   |    .torrent скачан:  16 раз   |   
Раздают:  1  
   
загрузка...
 
Автор Сообщение

Galfimbul

avatar Galfimbul


Укротительница тигров

Год выпуска: 1954
Страна: СССР
Жанр: комедия
Продолжительность: 01:35:24
Перевод: не требуется
Субтитры: нет
Режиссеры: Александр Ивановский, Надежда Кошеверова
В ролях: Людмила Касаткина, Павел Кадочников, Леонид Быков, Павел Суханов, Константин Сорокин, Гликерия Богданова-Чеснокова, Нина Ургант и другие .
Описание: Своей беззаветной влюбленностью в цирковое искусство Леночка Воронцова смогла «заразить» спортсмена-мотогонщика Федора Ермолаева. Они создают новаторский номер «мотогонки под куполом цирка». Федор Ермолаев полюбил Леночку. Она, готова ответить ему взаимностью, но в последний момент отказывается от интересных гастролей, потому что руководство предложило ей стать дрессировщицей любимых тигров .
Доп. информация: Рип выполнен с реставрированного диска "Крупного плана" и не подвергался дополнительной фильтрации .
Релиз группы

Качество: DVDRip / рип с DVD5 (Крупный план. Полная реставрация изображения и звука)
Формат: MP4
Видео кодек: H.264
Аудио кодек: AAC
Видео: 480x360 AR:1.33 1080 kbps 25 fps
Аудио: 2ch 48 kHz 128 kbps
avs [info]: 480x360p 1:1 @ 25/1 fps (cfr)
x264 [info]: using SAR=1/1
x264 [info]: using cpu capabilities: MMX2 SSE2Fast SSSE3 SSE4.2 AVX FMA3 BMI2 AVX2
x264 [info]: profile High, level 4.1

x264 [info]: frame I:759 Avg QP:17.75 size: 30942
x264 [info]: frame P:33810 Avg QP:20.99 size: 10994
x264 [info]: frame B:108537 Avg QP:23.33 size: 3478
x264 [info]: consecutive B-frames: 1.4% 2.0% 11.6% 38.8% 16.0% 28.5% 1.3% 0.4%
x264 [info]: mb I I16..4: 1.6% 72.7% 25.7%
x264 [info]: mb P I16..4: 0.2% 7.0% 1.7% P16..4: 30.3% 35.9% 18.7% 3.7% 0.5% skip: 2.1%
x264 [info]: mb B I16..4: 0.0% 0.8% 0.2% B16..8: 30.5% 22.6% 4.9% direct: 6.3% skip:34.7% L0:33.4% L1:38.5% BI:28.1%
x264 [info]: 8x8 transform intra:77.8% inter:56.1%
x264 [info]: direct mvs spatial:97.2% temporal:2.8%
x264 [info]: coded y,uvDC,uvAC intra: 93.7% 88.4% 67.2% inter: 29.7% 23.0% 8.4%
x264 [info]: i16 v,h,dc,p: 32% 13% 6% 49%
x264 [info]: i8 v,h,dc,ddl,ddr,vr,hd,vl,hu: 18% 8% 6% 8% 12% 13% 11% 12% 12%
x264 [info]: i4 v,h,dc,ddl,ddr,vr,hd,vl,hu: 21% 6% 3% 8% 13% 15% 11% 12% 11%
x264 [info]: i8c dc,h,v,p: 37% 21% 25% 17%
x264 [info]: Weighted P-Frames: Y:36.0% UV:17.0%
x264 [info]: ref P L0: 48.8% 14.8% 15.3% 6.1% 4.6% 3.7% 3.3% 2.4% 1.0% 0.0%
x264 [info]: ref B L0: 86.9% 7.1% 2.7% 1.3% 0.9% 0.7% 0.4%
x264 [info]: ref B L1: 97.4% 2.6%
x264 [info]: kb/s:1079.86

encoded 143106 frames, 29.38 fps, 1079.87 kb/s
ОбщееПолное имя : D:\Torrents\Ukrotitelnica tigrov.1954.DVDRip.x264.640x.rip by Frost O.S.mp4Формат : MPEG-4Профиль формата : Base MediaИдентификатор кодека : isom (isom)Размер файла : 827 МбайтПродолжительность : 1 ч. 35 м.Режим общего битрейта : ПеременныйОбщий поток : 1212 Кбит/секДата кодирования : UTC 2018-05-23 17:26:09Дата пометки : UTC 2018-05-23 17:26:09Программа кодирования : My MP4Box GUI 0.6.0.6

ВидеоИдентификатор : 1Формат : AVCФормат/Информация : Advanced Video CodecПрофиль формата : [email protected]Настройки формата : CABAC / 8 Ref FramesПараметр CABAC формата : ДаПараметр RefFrames формата : 8 кадровИдентификатор кодека : avc1Идентификатор кодека/Информация : Advanced Video CodingПродолжительность : 1 ч. 35 м.Битрейт : 1080 Кбит/секМаксимальный битрейт : 3085 Кбит/секШирина : 480 пикселейВысота : 360 пикселейСоотношение сторон : 4:3Режим частоты кадров : ПостоянныйЧастота кадров : 25,000 кадров/секЦветовое пространство : YUVСубдискретизация насыщенности : 4:2:0Битовая глубина : 8 битТип развёртки : ПрогрессивнаяБит/(Пиксели*Кадры) : 0.250Размер потока : 737 Мбайт (89%)Заголовок : Ukrotitelnica tigrov.1954.DVDRip.x264.640x.rip by Frost O.SБиблиотека кодирования : x264 core 152 r2851 ba24899Настройки программы : cabac=1 / ref=8 / deblock=1:-2:-1 / analyse=0x3:0x133 / me=umh / subme=11 / psy=1 / psy_rd=1.00:0.00 / mixed_ref=1 / me_range=48 / chroma_me=1 / trellis=2 / 8x8dct=1 / cqm=0 / deadzone=21,11 / fast_pskip=0 / chroma_qp_offset=-2 / threads=6 / lookahead_threads=1 / sliced_threads=0 / nr=0 / decimate=0 / interlaced=0 / bluray_compat=0 / constrained_intra=0 / bframes=7 / b_pyramid=2 / b_adapt=2 / b_bias=0 / direct=3 / weightb=1 / open_gop=0 / weightp=2 / keyint=250 / keyint_min=25 / scenecut=40 / intra_refresh=0 / rc=2pass / mbtree=0 / bitrate=1080 / ratetol=1.0 / qcomp=0.65 / qpmin=0 / qpmax=69 / qpstep=4 / cplxblur=20.0 / qblur=0.5 / ip_ratio=1.40 / pb_ratio=1.30 / aq=2:0.90Дата кодирования : UTC 2018-05-23 17:11:04Дата пометки : UTC 2018-05-23 17:26:12Цветовой диапазон : LimitedОсновные цвета : BT.601 PALХарактеристики трансфера : BT.470 System B/GКоэффициенты матрицы : BT.470 System B/G

АудиоИдентификатор : 2Формат : AACФормат/Информация : Advanced Audio CodecПрофиль формата : LCИдентификатор кодека : mp4a-40-2Продолжительность : 1 ч. 35 м.Вид битрейта : ПеременныйБитрейт : 128 Кбит/секМаксимальный битрейт : 134 Кбит/секКаналы : 2 каналаРасположение каналов : Front: L RЧастота : 48,0 КГцЧастота кадров : 46,875 кадров/сек (1024 SPF)Метод сжатия : С потерямиРазмер потока : 87,3 Мбайт (11%)Дата кодирования : UTC 2018-05-23 17:26:11Дата пометки : UTC 2018-05-23 17:26:12


Трекер:  [ 23-Май-2018 20:36 ]

  

Скачать .torrent

Размер .torrent файла 16 KB


Размер: 827 MB
Хэш (hash) релиза: 40af4da8ccbb9ae7c529f217dd1f93e0001594a9

Еще никто не оставлял запись к записи скачать торрент [VIDEO] Укротительница тигров . Будь первым!

!Обратная связь