Eps7 Brockmire Season 2 | Eps10 In Contempt Season 1 | Eps7 Colony Season 3

Скачать через торрент [iPad] Гоголь. Вий бесплатно русская версия torrent активатор

Статистика раздачи
Размер:  1.61 GB   |    Зарегистрирован:  1 месяц 2 дня   |    .torrent скачан:  38 раз   |   
Раздают:  1  
   
загрузка...
 
Автор Сообщение

Galfimbul

avatar Galfimbul


Гоголь. Вий
«Не выходи из круга»

6.374 / 10 / 10
Год выпуска: 2018
Страна: Россия
Жанр: Детектив, приключения, драма
Продолжительность: 01:39:03

Перевод: (Не требуется)
Оригинальная аудиодорожка: Есть
Cубтитры: Нет
Режиссёр: Егор Баранов
Сценарий: Алексей Чупов, Наталья Меркулова, Алексей Караулов
Продюсер: Александр Цекало, Артур Джанибекян, Валерий Федорович
Оператор: Сергей Трофимов
Композитор: Ryan Otter
Художник: Елена Жукова, Виктория Игумнова
Монтаж: Александр Иванов
В ролях: Александр Петров, Олег Меньшиков, Евгений Стычкин, Таисия Вилкова, Артем Ткаченко, Екатерина Бурлакова, Сергей Бадюк, Ян Цапник, Алексей Вертков, Марта Тимофеева

Сборы в России: $7 403 878

Премьера (РФ): 5 апреля 2018, «Каропрокат»

Описание: Писарь из Санкт-Петербурга Николай Гоголь бросает вызов загадочному тёмному Всаднику, который жестоко расправляется с девушками в окрестностях села Диканька. Собрав команду из местного полицейского, пьяницы-доктора, суеверного кузнеца и странствующего философа-экзорциста, Гоголь пытается заманить злодея в ловушку, но на его пути встает самое жуткое порождение нечистой силы — Вий, один взгляд которого способен высосать душу смертного. Неожиданно для себя Гоголь выясняет, что с потусторонними силами его связывают не только таинственные видения.
Качество исходника: WEB-DL 1080p (BlueBird)
Качество: WEB-DLRip
Тип: SD (576p)
Контейнер: M4V
Видео: H.264, 1024x432, 2.40:1, 2 200 Kbps, 23.976 fps

Аудио: Русский/Оригинальная дорожка, AAC / 2.0 / 128 Kbps / 48.0 KHz
Sort Name: Гоголь. Вий
XID: Apple:vendor_id:2018-1100779
contentID: 1378007335
Copyright: © 2018 CP MEDIA LIMITED
Screenwriters: Алексей Чупов, Наталья Меркулова, Алексей Караулов
Producers: Александр Цекало, Артур Джанибекян, Валерий Федорович
Director: Егор Баранов
Cast: Александр Петров, Олег Меньшиков, Евгений Стычкин, Таисия Вилкова, Артём Ткаченко, Екатерина Бурлакова, Сергей Бадюк, Ян Цапник, Алексей Вертков, Марта Тимофеева
Studio: Продюсерская компания «Среда»
Rating: 135
Long Description: Писарь из Санкт-Петербурга Николай Гоголь бросает вызов загадочному тёмному Всаднику, который жестоко расправляется с девушками в окрестностях села Диканька. Собрав команду из местного полицейского, пьяницы-доктора, суеверного кузнеца и странствующего философа-экзорциста, Гоголь пытается заманить злодея в ловушку, но на его пути встает самое жуткое порождение нечистой силы — Вий, один взгляд которого способен высосать душу смертного. Неожиданно для себя Гоголь выясняет, что с потусторонними силами его связывают не только таинственные видения.
Description: Писарь из Санкт-Петербурга Николай Гоголь бросает вызов загадочному тёмному Всаднику, который жестоко расправляется с девушками в окрестностях села Диканька. Собрав команду из местного полицейского, пьяницы-доктора, суеверного кузнеца и странствующего философа-экзорциста, Гоголь пытается заманить злодея в ловушку.
Release Date: 2018-04-05T07:00:00Z
Genre: Боевики и приключения
Artist: Егор Баранов
Name: Гоголь. Вий
General
Complete name : /Users/imac/HandBrake/Gogol.Viy.(SD).(pk).m4v
Format : MPEG-4
Codec ID : M4V
File size : 1.61 GiB
Duration : 1h 39mn
Overall bit rate mode : Variable
Overall bit rate : 2 332 Kbps
Movie name : Гоголь. Вий
Performer : Егор Баранов
Director : Егор Баранов
Actor : Александр Петров / Олег Меньшиков / Евгений Стычкин / Таисия Вилкова / Артём Ткаченко / Екатерина Бурлакова / Сергей Бадюк / Ян Цапник / Алексей Вертков / Марта Тимофеева
Screenplay by : Алексей Чупов / Наталья Меркулова / Алексей Караулов
Producer : Александр Цекало / Артур Джанибекян / Валерий Федорович
Production studio : Продюсерская компания «Среда»
Genre : Боевики и приключения
ContentType : Short Film
Description : Писарь из Санкт-Петербурга Николай Гоголь бросает вызов загадочному тёмному Всаднику, который жестоко расправляется с девушками в окрестностях села Диканька. Собрав команду из местного полицейского, пьяницы-доктора, суеверного кузнеца и странствующего философа-экзорциста, Гоголь пытается заманить злодея в ловушку.
Recorded date : UTC 2018-04-05 07:00:00
Encoded date : UTC 2018-05-23 10:52:35
Tagged date : UTC 2018-05-23 10:55:46
Copyright : © 2018 CP MEDIA LIMITED
Cover : Yes
Rating : None
Title/Sort : Гоголь. Вий
LongDescription : Писарь из Санкт-Петербурга Николай Гоголь бросает вызов загадочному тёмному Всаднику, который жестоко расправляется с девушками в окрестностях села Диканька. Собрав команду из местного полицейского, пьяницы-доктора, суеверного кузнеца и странствующего философа-экзорциста, Гоголь пытается заманить злодея в ловушку, но на его пути встает самое жуткое порождение нечистой силы — Вий, один взгляд которого способен высосать душу смертного. Неожиданно для себя Гоголь выясняет, что с потусторонними силами его связывают не только таинственные видения.
AppleStoreCatalogID : 1378007335
Vendor : Apple:vendor_id:2018-1100779
ContentRating : ru-movie|16+|375|

Video #1
ID : 1
Format : AVC
Format/Info : Advanced Video Codec
Format profile : [email protected]
Format settings, CABAC : Yes
Format settings, ReFrames : 9 frames
Codec ID : avc1
Codec ID/Info : Advanced Video Coding
Duration : 1h 39mn
Source duration : 1h 39mn
Bit rate : 2 200 Kbps
Width : 1 024 pixels
Height : 432 pixels
Display aspect ratio : 2.40:1
Frame rate mode : Variable
Frame rate : 23.976 fps
Minimum frame rate : 23.810 fps
Maximum frame rate : 23.981 fps
Color space : YUV
Chroma subsampling : 4:2:0
Bit depth : 8 bits
Scan type : Progressive
Bits/(Pixel*Frame) : 0.207
Stream size : 1.52 GiB (94%)
Source stream size : 1.52 GiB (94%)
Title : Main Program
Writing library : x264 core 155 r2893 b00bcaf
Encoding settings : cabac=1 / ref=9 / deblock=1:0:0 / analyse=0x3:0x113 / me=umh / subme=9 / psy=1 / psy_rd=1.00:0.00 / mixed_ref=1 / me_range=32 / chroma_me=1 / trellis=1 / 8x8dct=1 / cqm=0 / deadzone=21,11 / fast_pskip=1 / chroma_qp_offset=-2 / threads=13 / lookahead_threads=1 / sliced_threads=0 / nr=0 / decimate=1 / interlaced=0 / bluray_compat=0 / constrained_intra=0 / bframes=6 / b_pyramid=2 / b_adapt=2 / b_bias=0 / direct=1 / weightb=1 / open_gop=0 / weightp=2 / keyint=240 / keyint_min=24 / scenecut=40 / intra_refresh=0 / rc_lookahead=40 / rc=2pass / mbtree=1 / bitrate=2200 / ratetol=1.0 / qcomp=0.60 / qpmin=0 / qpmax=69 / qpstep=4 / cplxblur=20.0 / qblur=0.5 / ip_ratio=1.40 / aq=1:1.00
Language : Russian
Encoded date : UTC 2018-05-23 10:52:35
Tagged date : UTC 2018-05-23 10:52:40
Color range : Limited
Color primaries : BT.709
Transfer characteristics : BT.709
Matrix coefficients : BT.709

Video #2
ID : 4
Format : JPEG
Codec ID : jpeg
Duration : 1h 39mn
Bit rate mode : Variable
Bit rate : 700 bps
Width : 640 pixels
Height : 270 pixels
Display aspect ratio : 2.40:1
Frame rate mode : Variable
Frame rate : 0.003 fps
Minimum frame rate : 0.001 fps
Maximum frame rate : 0.004 fps
Color space : YUV
Chroma subsampling : 4:2:0
Bit depth : 8 bits
Compression mode : Lossy
Bits/(Pixel*Frame) : 1.350
Stream size : 456 KiB (0%)
Title : Chapter Images
Language : Russian
Encoded date : UTC 2018-05-23 10:52:46
Tagged date : UTC 2018-05-23 10:52:47

Audio
ID : 2
Format : AAC
Format/Info : Advanced Audio Codec
Format profile : LC
Codec ID : 40
Duration : 1h 39mn
Source duration : 1h 39mn
Bit rate mode : Variable
Bit rate : 127 Kbps
Maximum bit rate : 182 Kbps
Channel(s) : 2 channels
Channel positions : Front: L R
Sampling rate : 48.0 KHz
Compression mode : Lossy
Stream size : 89.7 MiB (5%)
Source stream size : 89.7 MiB (5%)
Title : Russian Stereo
Language : Russian
Encoded date : UTC 2018-05-23 10:52:35
Tagged date : UTC 2018-05-23 10:52:42

Menu #1
00:00:00.000 : 1
00:07:29.000 : 2
00:12:22.790 : 3
00:20:44.455 : 4
00:24:45.205 : 5
00:30:02.620 : 6
00:35:28.369 : 7
00:41:36.952 : 8
00:47:22.660 : 9
00:52:11.243 : 10
00:58:36.493 : 11
01:05:09.993 : 12
01:10:35.076 : 13
01:15:23.908 : 14
01:21:01.408 : 15
01:27:35.283 : 16

Menu #2
ID : 3
Codec ID : text
Duration : 1h 39mn
Language : Russian
Encoded date : UTC 2018-05-23 10:52:42
Tagged date : UTC 2018-05-23 10:52:42
00:00:00.000 : 1
00:07:29.000 : 2
00:12:22.790 : 3
00:20:44.455 : 4
00:24:45.205 : 5
00:30:02.620 : 6
00:35:28.369 : 7
00:41:36.952 : 8
00:47:22.660 : 9
00:52:11.243 : 10
00:58:36.493 : 11
01:05:09.993 : 12
01:10:35.076 : 13
01:15:23.908 : 14
01:21:01.408 : 15
01:27:35.283 : 16
Bit rate mode : VBR
x264 [info]: frame I:1436  Avg QP:10.53  size: 69935
x264 [info]: frame P:36611 Avg QP:13.17  size: 23017
x264 [info]: frame B:104449 Avg QP:15.21  size:  6616
x264 [info]: consecutive B-frames:  2.2%  4.7%  5.3% 65.9%  7.8% 12.4%  1.7%
x264 [info]: mb I  I16..4:  8.8% 70.4% 20.8%
x264 [info]: mb P  I16..4:  1.4%  8.5%  2.1%  P16..4: 32.1% 30.3% 20.0%  0.0%  0.0%    skip: 5.5%
x264 [info]: mb B  I16..4:  0.1%  0.8%  0.3%  B16..8: 33.6% 14.3%  4.1%  direct: 6.7%  skip:40.0%  L0:42.9% L1:42.7% BI:14.3%
x264 [info]: 8x8 transform intra:69.6% inter:65.0%
x264 [info]: coded y,uvDC,uvAC intra: 85.9% 86.9% 70.9% inter: 29.5% 24.0% 4.8%
x264 [info]: i16 v,h,dc,p: 28% 11%  9% 52%
x264 [info]: i8 v,h,dc,ddl,ddr,vr,hd,vl,hu: 12%  9%  9%  9% 12% 12% 12% 12% 13%
x264 [info]: i4 v,h,dc,ddl,ddr,vr,hd,vl,hu: 10%  7%  4%  9% 15% 15% 13% 12% 13%
x264 [info]: i8c dc,h,v,p: 49% 22% 17% 12%
x264 [info]: Weighted P-Frames: Y:5.2% UV:2.5%
x264 [info]: ref P L0: 51.6%  8.2% 16.4%  7.1%  5.3%  4.0%  3.3%  2.0%  1.9%  0.1%  0.0%
x264 [info]: ref B L0: 73.8% 11.9%  5.8%  2.9%  2.2%  1.8%  1.2%  0.4%
x264 [info]: ref B L1: 95.0%  5.0%
x264 [info]: kb/s:2199.57

Релиз подготовлен для просмотра на Apple TV, iPad, iPhone, iPod Touch.
Для просмотра данного релиза на компьютере с ОС Windows рекомендуется использовать VLC media player

Трекер:  [ 23-Май-2018 14:36 ]

  

Скачать .torrent

Размер .torrent файла 32 KB


Размер: 1.61 GB
Хэш (hash) релиза: 5ff4a5bd0c2336c595031a19d45be479f13a9644

Еще никто не оставлял запись к записи скачать торрент [iPad] Гоголь. Вий . Будь первым!

!Обратная связь