Simulation Games (Count: 1106) | Adventure | A Street Cat Named Bob2016103 min +5

Скачать через торрент [MULT] Гадкий я 2 Despicable Me 2 бесплатно русская версия torrent активатор

Статистика раздачи
Размер:  443 MB   |    Зарегистрирован:  2 месяца   |    .torrent скачан:  12 раз   |   
Раздают:  1  
   
загрузка...
 
Автор Сообщение

Galfimbul

avatar Galfimbul


Гадкий я 2 / Despicable Me 2


Год выпуска: 2013
Страна: США
Жанр: мультфильм
Продолжительность: 01:37:58
Перевод: русский Профессиональный (полное дублирование) Blu-ray EUR
Субтитры: нет
Режиссеры: Пьер Соффин / Pierre Coffin, Крис Рено / Chris Renaud
Роли озвучивали: Стив Карелл, Кристен Уиг, Бенджамин Брэтт, Миранда Косгров, Расселл Брэнд, Кен Жонг, Стив Куган, Элси Фишер, Дэна Гайер, Мойзес Ариас и другие .
Описание: В то время как Грю, бывший суперзлодей, приспосабливается к семейной жизни и пытается честным трудом зарабатывать в сфере бизнеса, тайные лаборатории Арктики оказываются украденными. Анти-Злодейская лига решает, что она нуждается в помощи Грю и его новобранцев в расследовании .
Релиз группы

Качество: HDRip / рип с BDRip 720p
Формат: MP4
Видео кодек: XviD
Аудио кодек: AAC
Видео: 480x256 AR:1.88 500 kbps 23.976 fps
Аудио: [Russian] 2ch 48 kHz 128 kbps - [Dub] Профессиональный (полное дублирование) Blu-ray EUR
ОбщееПолное имя : D:\Torrents\Despicable Me 2.2013.HDRip.XviD.480x.rip by Frost O.S.mp4Формат : MPEG-4Профиль формата : 3GPP Media Release 5Идентификатор кодека : 3gp5 (isom/3gp5/3gp4/mp41/mp42)Размер файла : 443 МбайтПродолжительность : 1 ч. 37 м.Режим общего битрейта : ПеременныйОбщий поток : 632 Кбит/секДата кодирования : UTC 2018-05-23 09:15:23Дата пометки : UTC 2018-05-23 09:15:23Программа кодирования : Yamb 2.1.0.0

ВидеоИдентификатор : 1Формат : MPEG-4 VisualПрофиль формата : Advanced [email protected]Настройки формата : BVOP / QPel / Custom MatrixПараметр BVOP формата : ДаПараметр QPel формата : ДаПараметр GMC формата : Без точки переходаПараметр матрицы формата : ВыборочнаяИдентификатор кодека : mp4v-20Продолжительность : 1 ч. 37 м.Вид битрейта : ПеременныйБитрейт : 500 Кбит/секМаксимальный битрейт : 2310 Кбит/секШирина : 480 пикселейВысота : 256 пикселейСоотношение сторон : 1,85:1Режим частоты кадров : ПеременныйЧастота кадров : 23,976 (23976/1000) кадра/секМинимальная частота кадров : 11,988 кадров/секМаксимальная частота кадров : 23,976 кадра/секЧастота кадров в оригинале : 23,976 (24000/1001) кадра/секЦветовое пространство : YUVСубдискретизация насыщенности : 4:2:0Битовая глубина : 8 битТип развёртки : ПрогрессивнаяМетод сжатия : С потерямиБит/(Пиксели*Кадры) : 0.170Размер потока : 350 Мбайт (79%)Заголовок : [email protected]-DEV-rev248-g39d5978-masterБиблиотека кодирования : XviD 1.2.1 (UTC 2008-12-04)Дата кодирования : UTC 2018-05-23 09:00:34Дата пометки : UTC 2018-05-23 09:15:25

АудиоИдентификатор : 2Формат : AACФормат/Информация : Advanced Audio CodecПрофиль формата : LCИдентификатор кодека : mp4a-40-2Продолжительность : 1 ч. 37 м.Вид битрейта : ПеременныйБитрейт : 128 Кбит/секМаксимальный битрейт : 138 Кбит/секКаналы : 2 каналаРасположение каналов : Front: L RЧастота : 48,0 КГцЧастота кадров : 46,875 кадров/сек (1024 SPF)Метод сжатия : С потерямиРазмер потока : 89,7 Мбайт (20%)Заголовок : Russian / DubДата кодирования : UTC 2018-05-23 04:51:49Дата пометки : UTC 2018-05-23 09:15:25


Трекер:  [ 23-Май-2018 12:36 ]

  

Скачать .torrent

Размер .torrent файла 17 KB


Размер: 443 MB
Хэш (hash) релиза: 9e4c3a72c93f8a840660550643263d919590a5d9

Торренты, похожие на [MULT] Гадкий я 2 Despicable Me 2 скачать торрент

Форум Название Автор Размер S L Добавлен
Видео (Фильмы/Клипы) ·· [MULT] Гадкий я 2 / Despicable Me 2 (Пьер Соффин / Pierre Coffin, Крис Рено / Chris Renaud) [2013, мультфильм, HDRip] [3GP, 320x] Dub Blu-ray EUR Galfimbul 316477146302 MB 0 0 1527071815

13:36

23-Май-18

Еще никто не оставлял запись к записи скачать торрент [MULT] Гадкий я 2 Despicable Me 2 . Будь первым!

!Обратная связь