Upgrade 2018 filme complete en español | Upgrade 2018 hd película .avi | Upgrade 2018 película completa con subtítulos en español

Скачать через торрент Пятилетие "Stand Up" Фильм бесплатно в хорошем качестве torrent

Скачивайте на UnionPeer.org фильмы через торрент без регистрации. Новинки кино в хорошем качестве через торрент. На UnionPeer.org можно скачать через торрент фильмы 2014 и 2015 годов. Самые новые фильмы.

Скачать торрент Пятилетие "Stand Up" бесплатно через .torrent фильм мультфильм сериал

Статистика раздачи
Размер:  561 MB   |    Зарегистрирован:  1 месяц 1 день   |    .torrent скачан:  41 раз   |   
Раздают:  1  
   
загрузка...
 
Автор Сообщение

Galfimbul

avatar Galfimbul


Пятилетие "Stand Up" (Выпуск 2-й от 20-05-2018)

Дата/Год выпуска: 2018
Страна: Россия
Жанр: Stand up
Продолжительность: 00:48:08
Перевод: Не требуется
Режиссер: Роман Новиков
Телеканал: ТНТ HD

В ролях: Руслан Белый, Александр Шаляпин, Юля Ахмедова, Дмитрий Романов, Нурлан Сабуров, Алексей Щербаков
Описание: Самые бескомпромиссные, жизненные, тонкие шутки, самые харизматичные комики, самый актуальный жанр комедии – все это Пятилетие «STAND UP» 1 сезон 2 выпуск.

качество: HDTVRip
формат: AVI
Видео: XVID, 704x400 (16:9), 25.000 fps, 1428 kbps
Аудио: MP3, 192 kbps, 48.0 KHz, 2 ch
GeneralComplete name : D:\Humor\5 Let Stand Up Выпуск 2 HDTVRip.aviFormat : AVIFormat/Info : Audio Video InterleaveFile size : 561 MiBDuration : 48mn 8sOverall bit rate : 1 629 KbpsWriting application : VirtualDubMod 1.5.10.3 | www.virtualdub-fr.org || (build 2550/release)Writing library : VirtualDubMod build 2550/release

VideoID : 0Format : MPEG-4 VisualFormat profile : Advanced [email protected] settings, BVOP : 1Format settings, QPel : NoFormat settings, GMC : No warppointsFormat settings, Matrix : CustomCodec ID : XVIDCodec ID/Hint : XviDDuration : 48mn 8sBit rate : 1 428 KbpsWidth : 704 pixelsHeight : 400 pixelsDisplay aspect ratio : 16:9Frame rate : 25.000 fpsColor space : YUVChroma subsampling : 4:2:0Bit depth : 8 bitsScan type : ProgressiveCompression mode : LossyBits/(Pixel*Frame) : 0.203Stream size : 492 MiB (88%)Writing library : XviD 73

AudioID : 1Format : MPEG AudioFormat version : Version 1Format profile : Layer 3Codec ID : 55Codec ID/Hint : MP3Duration : 48mn 8sBit rate mode : ConstantBit rate : 192 KbpsChannel count : 2 channelsSampling rate : 48.0 KHzCompression mode : LossyStream size : 66.1 MiB (12%)Alignment : Aligned on interleavesInterleave, duration : 40 ms (1.00 video frame)Interleave, preload duration : 504 msWriting library : LAME3.99rEncoding settings : -m s -V 4 -q 0 -lowpass 18.6 -b 192


Трекер:  [ 22-Май-2018 23:42 ]

  

Скачать .torrent

Размер .torrent файла 11 KB


Размер: 561 MB
Хэш (hash) релиза: 937dbaf39b2e62f081ca2d0c185a869b7471338b
Подписка на обновления:

Торренты, похожие на Пятилетие "Stand Up" скачать торрент

Форум Название Автор Размер S L Добавлен
Развлекательные телепередачи и шоу ·· Пятилетие "Stand Up" (Выпуск 2-й от 20-05-2018) (Роман Новиков) [2018, Stand up, HDTV 1080i] Galfimbul 15437341391.44 GB 0 0 1526852528

00:42

21-Май-18

Еще никто не оставлял запись к записи скачать торрент Пятилетие "Stand Up" . Будь первым!

!Обратная связь