DJ 2 (2017) Hindi Dubbed Action Movie Full HD 700 MB | Smf Enclosures | saison 6 complet

Скачать через торрент Дикие предки Early Man Фильм бесплатно в хорошем качестве torrent

Скачивайте на UnionPeer.org фильмы через торрент без регистрации. Новинки кино в хорошем качестве через торрент. На UnionPeer.org можно скачать через торрент фильмы 2014 и 2015 годов. Самые новые фильмы.

Скачать торрент Дикие предки Early Man бесплатно через .torrent фильм мультфильм сериал

Статистика раздачи
Размер:  1.46 GB   |    Зарегистрирован:  1 месяц 2 дня   |    .torrent скачан:  86 раз   |   
Раздают:  1  
   
загрузка...
 
Автор Сообщение

Galfimbul

avatar Galfimbul


Дикие предки / Early Man

Страна: Великобритания, Франция
Жанр: мультфильм
Год выпуска: 2018
Продолжительность: 01:28:40
Перевод: Профессиональный (дублированный) | iTunes
Субтитры: нет
Оригинальная аудиодорожка: нет
Режиссер: Ник Парк / Nick Park
В ролях: Эдди Редмэйн, Том Хиддлстон, Мэйси Уильямс, Тимоти Сполл, Ричард Айоади, Марк Уильямс, Мириам Маргулис, Роб Брайдон, Ник Парк, Джонни Вегас
Описание: Каменный век и даже более поздние цивилизации — всё равно дикие предки, но как же они были похожи на нас. У них тоже было слишком много родственников, а мужчины боролись за любимую женщину. Они тоже обожали драгоценности, играли в кожаный мяч, и каждый стремился стать первым…
Качество видео: BDRip | EARLY_MAN_2018_RMX_BLUEBIRD
Формат видео: AVI

Видео: 720x384 (1.88:1), 23.976 fps, XviD build 73 ~1957 kbps avg, 0.29 bit/pixel
Аудио: 48 kHz, AC3 Dolby Digital, 3/2 (L,C,R,l,r) + LFE ch, ~384 kbps
<div class="post-box-default">
<div class="post-box">Сэмпл</div>
</div>
Format                      : AVI
Format/Info                 : Audio Video Interleave
File size                   : 1.46 GiB
Duration                    : 1 h 28 min
Overall bit rate            : 2 351 kb/s
Writing application         : VirtualDubMod 1.5.10.3 | www.virtualdub-fr.org || (build 2550/release)
Writing library             : VirtualDubMod build 2550/release

Video
ID                          : 0
Format                      : MPEG-4 Visual
Format profile              : Advanced [email protected]
Format settings             : BVOP1 / Custom Matrix
Format settings, BVOP       : 1
Format settings, QPel       : No
Format settings, GMC        : No warppoints
Format settings, Matrix     : Custom
Codec ID                    : XVID
Codec ID/Hint               : XviD
Duration                    : 1 h 28 min
Bit rate                    : 1 957 kb/s
Width                       : 720 pixels
Height                      : 384 pixels
Display aspect ratio        : 1.85:1
Frame rate                  : 23.976 (24000/1001) FPS
Color space                 : YUV
Chroma subsampling          : 4:2:0
Bit depth                   : 8 bits
Scan type                   : Progressive
Compression mode            : Lossy
Bits/(Pixel*Frame)          : 0.295
Stream size                 : 1.21 GiB (83%)
Writing library             : XviD 73

Audio
ID                          : 1
Format                      : AC-3
Format/Info                 : Audio Coding 3
Codec ID                    : 2000
Duration                    : 1 h 28 min
Bit rate mode               : Constant
Bit rate                    : 384 kb/s
Channel(s)                  : 6 channels
Channel positions           : Front: L C R, Side: L R, LFE
Sampling rate               : 48.0 kHz
Frame rate                  : 31.250 FPS (1536 SPF)
Bit depth                   : 16 bits
Compression mode            : Lossy
Stream size                 : 244 MiB (16%)
Alignment                   : Split accross interleaves
Interleave, duration        : 42  ms (1.00 video frame)
Interleave, preload duratio : 500  ms
Service kind                : Complete Main


Трекер:  [ 22-Май-2018 19:30 ]

  

Скачать .torrent

Размер .torrent файла 15 KB


Размер: 1.46 GB
Хэш (hash) релиза: e26d9847eb90f17c9a04ba1dcfbfe03c896fbaf1
Подписка на обновления:

Еще никто не оставлял запись к записи скачать торрент Дикие предки Early Man . Будь первым!

!Обратная связь