Franz Ferdinand Sparks (FFS) | Terry Gill | Allegiance (2015) - Saison 1

Скачать через торрент Бадди Громанутый Buddy Thunderstruck Фильм бесплатно в хорошем качестве torrent

Скачивайте на UnionPeer.org фильмы через торрент без регистрации. Новинки кино в хорошем качестве через торрент. На UnionPeer.org можно скачать через торрент фильмы 2014 и 2015 годов. Самые новые фильмы.

Скачать торрент Бадди Громанутый Buddy Thunderstruck бесплатно через .torrent фильм мультфильм сериал

Статистика раздачи
Размер:  1.81 GB   |    Зарегистрирован:  1 месяц 3 дня   |    .torrent скачан:  21 раз   |   
Раздают:  1  
   
загрузка...
 
Автор Сообщение

Galfimbul

avatar Galfimbul


Бадди Громанутый / Buddy Thunderstruck

Страна: США
Жанр: мультфильм, боевик, комедия, семейный
Продолжительность серии: ~24мин.
Год выпуска: 2017
Перевод: Любительский (двухголосый закадровый) NewStation (по субтитрам J-sUn)
Русские субтитры: есть

Режиссёр: Эрик Таунер, Джон Херветайн IV, Гарри Часкин / Eric Towner, John Harvatine IV, Harry Chask
Роли озвучивали: Брайан Аткинсон, Деби Дерриберри, Фил Хейс, Райан Уисброк

Описание: Кукольный мультсериал от Netflix про Бадди Громанутого, знаменитого в узких кругах гонщика на грузовиках, и его механика. Вместе они попадают в дурацкие ситуации, веселятся всеми доступными способами, развлекают жителей Гризпита и действуют на нервы целой куче народа - от зрителей и местного шерифа до соперников по гонкам и таинственного приезжего незнакомца.

Предыдущие и альтернативные раздачи
Семпл: http://multi-up.com/1198962

Качество: WEB-DL 1080
Формат: MKV
Видео: AVC, 1920х1080, 16:9, 23,976 кадров/сек, ~4959 Кбит/сек
Аудио 1: [RUS] 48 kHz, AC-3, 6ch, ~384 kbps
Аудио 2: [ENG] 48 kHz, AC-3, 6ch, ~384 kbps
Субтитры: Русские, английские
GeneralUnique ID : 262607116537758919982270269068085499081 (0xC5904A7AB617BF62E8431357BCFB14C9)Complete name : D:\NewStation\Buddy.Thunderstruck.S01.WEB-DL.1080p.NewStation\Buddy.Thunderstruck.S01E01E02.Buddy.Double-Beaver.Dam.Fast.Pizza.1080p.Netflix.WEB-DL.DD5.1.x264-QOQ (1).mkvFormat : MatroskaFormat version : Version 4 / Version 2File size : 984 MiBDuration : 24 min 0 sOverall bit rate mode : VariableOverall bit rate : 5 729 kb/sEncoded date : UTC 2018-05-21 14:14:32Writing application : mkvmerge v19.0.0 ('Brave Captain') 64-bitWriting library : libebml v1.3.5 + libmatroska v1.4.8

VideoID : 1Format : AVCFormat/Info : Advanced Video CodecFormat profile : [email protected] settings : CABAC / 3 Ref FramesFormat settings, CABAC : YesFormat settings, RefFrames : 3 framesCodec ID : V_MPEG4/ISO/AVCDuration : 24 min 0 sBit rate mode : VariableBit rate : 4 959 kb/sNominal bit rate : 5 360 kb/sMaximum bit rate : 8 040 kb/sWidth : 1 920 pixelsHeight : 1 080 pixelsDisplay aspect ratio : 16:9Frame rate mode : ConstantFrame rate : 23.976 (24000/1001) FPSColor space : YUVChroma subsampling : 4:2:0Bit depth : 8 bitsScan type : ProgressiveBits/(Pixel*Frame) : 0.100Stream size : 851 MiB (87%)Writing library : x264 core 118Encoding settings : cabac=1 / ref=3 / deblock=1:0:0 / analyse=0x1:0x111 / me=umh / subme=10 / psy=1 / psy_rd=1.00:0.00 / mixed_ref=1 / me_range=24 / chroma_me=1 / trellis=2 / 8x8dct=0 / cqm=0 / deadzone=21,11 / fast_pskip=1 / chroma_qp_offset=-2 / threads=8 / sliced_threads=0 / nr=0 / decimate=1 / interlaced=0 / bluray_compat=0 / constrained_intra=0 / bframes=2 / b_pyramid=0 / b_adapt=2 / b_bias=0 / direct=3 / weightb=1 / open_gop=0 / weightp=2 / keyint=48 / keyint_min=25 / scenecut=0 / intra_refresh=0 / rc_lookahead=0 / rc=2pass / mbtree=1 / bitrate=5360 / ratetol=1.0 / qcomp=0.50 / qpmin=6 / qpmax=51 / qpstep=4 / cplxblur=20.0 / qblur=0.5 / vbv_maxrate=8040 / vbv_bufsize=10720 / nal_hrd=vbr / ip_ratio=1.40 / aq=1:1.00Default : YesForced : No

Audio #1ID : 2Format : AC-3Format/Info : Audio Coding 3Codec ID : A_AC3Duration : 24 min 0 sBit rate mode : ConstantBit rate : 384 kb/sChannel(s) : 6 channelsChannel positions : Front: L C R, Side: L R, LFESampling rate : 48.0 kHzFrame rate : 31.250 FPS (1536 SPF)Bit depth : 16 bitsCompression mode : LossyStream size : 65.9 MiB (7%)Title : NewStationLanguage : RussianService kind : Complete MainDefault : YesForced : No

Audio #2ID : 3Format : AC-3Format/Info : Audio Coding 3Codec ID : A_AC3Duration : 24 min 0 sBit rate mode : ConstantBit rate : 384 kb/sChannel(s) : 6 channelsChannel positions : Front: L C R, Side: L R, LFESampling rate : 48.0 kHzFrame rate : 31.250 FPS (1536 SPF)Bit depth : 16 bitsCompression mode : LossyStream size : 65.9 MiB (7%)Title : OriginalService kind : Complete MainDefault : NoForced : No

Text #1ID : 4Format : UTF-8Codec ID : S_TEXT/UTF8Codec ID/Info : UTF-8 Plain TextDuration : 22 min 3 sBit rate : 163 b/sCount of elements : 384Stream size : 26.4 KiB (0%)Title : Т.О ДрузейLanguage : RussianDefault : NoForced : No

Text #2ID : 5Format : UTF-8Codec ID : S_TEXT/UTF8Codec ID/Info : UTF-8 Plain TextDuration : 21 min 38 sBit rate : 107 b/sCount of elements : 500Stream size : 17.0 KiB (0%)Title : OriginalLanguage : EnglishDefault : NoForced : No


Трекер:  [ 21-Май-2018 20:24 ]

  

Скачать .torrent

Размер .torrent файла 18 KB


Размер: 1.81 GB
Хэш (hash) релиза: 92e2cc6fbeacef847162eed4592400bc9f976404
Подписка на обновления:

Еще никто не оставлял запись к записи скачать торрент Бадди Громанутый Buddy Thunderstruck . Будь первым!

!Обратная связь