The Finder | 4.2 02 h 18 minRota Comando | More Details

Скачать через торрент Робинзон и другие Robinson et compagnie Фильм бесплатно в хорошем качестве torrent

Скачивайте на UnionPeer.org фильмы через торрент без регистрации. Новинки кино в хорошем качестве через торрент. На UnionPeer.org можно скачать через торрент фильмы 2014 и 2015 годов. Самые новые фильмы.

Скачать торрент Робинзон и другие Robinson et compagnie бесплатно через .torrent фильм мультфильм сериал

Статистика раздачи
Размер:  1.28 GB   |    Зарегистрирован:  1 месяц 2 дня   |    .torrent скачан:  35 раз   |   
Раздают:  1  
   
загрузка...
 
Автор Сообщение

Galfimbul

avatar Galfimbul


Робинзон и другие / Robinson et compagnie

Страна: Франция
Жанр: мультфильм
Продолжительность: 01:05:48
Год выпуска: 1991
Перевод: Одноголосый закадровый
Русские субтитры: нет

Режиссёр: Жак Кулумба / Jacques Colombat
Роли озвучивали: Жак Франсуа, Роландо Фариа, Жюльен Гиомар, Жерар Эрнандес, Бенуа Аллемане, Нанетт Кори, Изабель де Боттон, Жоэль Демарти, Lucie Dissouva, Жан-Клод Донда

Описание: Вот и сбылась детская мечта. Робинзон отправляется в долгожданное морское путешествие. Но надо же беде случится, его судно терпит кораблекрушение. Оставшись единственным выжившим из своей команды он спасается на необитаемом острове. Ему доведется провести там не мало лет. Научиться выживать в диких джунглях, при этом здорово постараться не сойти с ума от бесконечного одиночества. Однако это не означает, что ему не встретятся там люди... просто одними он будет обманут, другие чуть было его не убьют... и только лишь находясь уже в зрелом возрасте, он повстречает настоящего друга который решит во что бы то ни стало помочь Робинзону вернуться на родину.

Семпл: http://multi-up.com/1198827

Качество: DVDRip
Формат: AVI
Видео: Xvid 688x512 25fps 2398kbps
Аудио 1: Dolby AC3 44100Hz stereo 192kbps [рус]
Аудио 2: Dolby AC3 44100Hz stereo 192kbps [фр]
GeneralComplete name : F:\Robinson et compagnie 1990 (Max Nabokov).aviFormat : AVIFormat/Info : Audio Video InterleaveFile size : 1.28 GiBDuration : 1 h 5 minOverall bit rate : 2 794 kb/sWriting application : VirtualDubMod 1.5.10.2 (build 2540/release)Writing library : VirtualDubMod build 2540/release

VideoID : 0Format : MPEG-4 VisualFormat profile : Advanced [email protected] settings : BVOP2Format settings, BVOP : 2Format settings, QPel : NoFormat settings, GMC : No warppointsFormat settings, Matrix : Default (H.263)Codec ID : XVIDCodec ID/Hint : XviDDuration : 1 h 5 minBit rate : 2 396 kb/sWidth : 688 pixelsHeight : 512 pixelsDisplay aspect ratio : 4:3Frame rate : 25.000 FPSColor space : YUVChroma subsampling : 4:2:0Bit depth : 8 bitsScan type : ProgressiveCompression mode : LossyBits/(Pixel*Frame) : 0.272Stream size : 1.10 GiB (86%)Writing library : XviD 73

Audio #1ID : 1Format : AC-3Format/Info : Audio Coding 3Codec ID : 2000Duration : 1 h 5 minBit rate mode : ConstantBit rate : 192 kb/sChannel(s) : 2 channelsChannel positions : Front: L RSampling rate : 44.1 kHzFrame rate : 28.711 FPS (1536 SPF)Bit depth : 16 bitsCompression mode : LossyStream size : 90.4 MiB (7%)Alignment : Split accross interleavesInterleave, duration : 40 ms (1.00 video frame)Interleave, preload duration : 500 msService kind : Complete Main

Audio #2ID : 2Format : AC-3Format/Info : Audio Coding 3Codec ID : 2000Duration : 1 h 5 minBit rate mode : ConstantBit rate : 192 kb/sChannel(s) : 2 channelsChannel positions : Front: L RSampling rate : 44.1 kHzFrame rate : 28.711 FPS (1536 SPF)Bit depth : 16 bitsCompression mode : LossyStream size : 90.4 MiB (7%)Alignment : Split accross interleavesInterleave, duration : 40 ms (1.00 video frame)Interleave, preload duration : 500 msService kind : Complete Main


Трекер:  [ 20-Май-2018 18:30 ]

  

Скачать .torrent

Размер .torrent файла 13 KB


Размер: 1.28 GB
Хэш (hash) релиза: 9b22cae52eb7e002b31e735dc14833f954349728
Подписка на обновления:

Еще никто не оставлял запись к записи скачать торрент Робинзон и другие Robinson et compagnie . Будь первым!

!Обратная связь