Shibito no Koe o Kiku ga Yoi 32 | Waen Dok Mai 17.Bölüm 38195 | Blindspot

Скачать через торрент Поезд на Париж The 15:17 to Paris Фильм бесплатно в хорошем качестве torrent

Скачивайте на UnionPeer.org фильмы через торрент без регистрации. Новинки кино в хорошем качестве через торрент. На UnionPeer.org можно скачать через торрент фильмы 2014 и 2015 годов. Самые новые фильмы.

Скачать торрент Поезд на Париж The 15:17 to Paris бесплатно через .torrent фильм мультфильм сериал

Статистика раздачи
Размер:  4.23 GB   |    Зарегистрирован:  1 месяц 5 дней   |    .torrent скачан:  40 раз   |   
Раздают:  1  
   
загрузка...
 
Автор Сообщение

Galfimbul

avatar Galfimbul


Поезд на Париж / The 15:17 to Paris

Страна: США
Жанр: триллер, драма, история
Год выпуска: 2018
Продолжительность: 01:33:51

Перевод: Профессиональный (дублированный) Blu-Ray
Субтитры: Русские (Форсированные, Полные), Английские (Форсированные, Полные, SDH, SDH-Colored)
Оригинальная аудиодорожка: английский

Режиссер: Клинт Иствуд / Clint Eastwood

В ролях: Спенсер Стоун, Энтони Сэдлер, Алек Скарлатос, Джуди Грир, Дженна Фишер, Рэй Корасани, Тони Хейл, Томас Леннон, Синква Уоллс, Ирен Уайт....

Описание: В центре сюжета события, произошедшие ранним вечером 21 августа 2015 года, когда весь мир, затаив дыхание, наблюдал за предотвращением террористической атаки в скоростном поезде N 9364 тремя бравыми молодыми американцами, которые в это время путешествовали по Европе.

Доп. информация: | IMDB | КиноПоиск | Сэмпл |

Тип релиза: BDRip 720p
Контейнер: MKV

Видео: AVC, 1280x536 (2.40:1), 4908 kbps, 23.976 fps, 0.298 bit/pixel
Аудио 1: AC3 Dolby Digital, 3/2 (L,C,R,l,r) + LFE ch, 48.0 KHz, 448 Kbps | Дубляж |
Аудио 2: AC3 Dolby Digital, 3/2 (L,C,R,l,r) + LFE ch, 48.0 KHz, 640 Kbps | Английский |
Аудио 3: AC3 Dolby Digital, 3/2 (L,C,R,l,r) + LFE ch, 48.0 KHz, 448 Kbps | Английский, Descriptive | Для слабовидящих
Формат субтитров: softsub (SRT)
<div class="sp-wrap">
<div class="sp-head folded">x264</div>
<div class="sp-body">x264 [info]: profile High, level 4.1
x264 [info]: frame I:1070 Avg QP:13.99 size:122589
x264 [info]: frame P:30966 Avg QP:15.49 size: 52078
x264 [info]: frame B:102990 Avg QP:17.72 size: 16618
x264 [info]: consecutive B-frames: 2.4% 3.3% 10.3% 25.9% 19.6% 25.3% 4.1% 4.9% 1.5% 0.6% 0.5% 1.0%
x264 [info]: mb I I16..4: 7.3% 71.1% 21.6%
x264 [info]: mb P I16..4: 1.5% 20.9% 2.8% P16..4: 27.6% 26.5% 15.3% 0.0% 0.0% skip: 5.4%
x264 [info]: mb B I16..4: 0.2% 2.1% 0.3% B16..8: 34.8% 16.3% 5.7% direct: 8.3% skip:32.3% L0:41.7% L1:38.7% BI:19.6%
x264 [info]: 8x8 transform intra:81.2% inter:54.5%
x264 [info]: coded y,uvDC,uvAC intra: 90.5% 91.0% 81.7% inter: 33.1% 26.8% 9.5%
x264 [info]: i16 v,h,dc,p: 48% 11% 7% 34%
x264 [info]: i8 v,h,dc,ddl,ddr,vr,hd,vl,hu: 14% 11% 10% 8% 11% 11% 11% 11% 12%
x264 [info]: i4 v,h,dc,ddl,ddr,vr,hd,vl,hu: 14% 9% 4% 9% 15% 13% 14% 11% 12%
x264 [info]: i8c dc,h,v,p: 48% 20% 18% 13%
x264 [info]: Weighted P-Frames: Y:4.7% UV:3.0%
x264 [info]: ref P L0: 50.3% 12.3% 15.5% 5.7% 5.0% 3.3% 3.1% 1.7% 1.7% 1.5% 0.1% 0.0%
x264 [info]: ref B L0: 77.6% 10.1% 4.6% 2.5% 1.8% 1.5% 1.2% 0.6% 0.2%
x264 [info]: ref B L1: 95.7% 4.3%
x264 [info]: kb/s:4908.28
General
Unique ID : 171289307970401116899617761504838786098 (0x80DD1EE8A4B499FA93104E43817F9C32)
Complete name : The 15.17 to Paris (2018).mkv
Format : Matroska
Format version : Version 4 / Version 2
File size : 4.23 GiB
Duration : 1 h 33 min
Overall bit rate : 6 448 kb/s
Movie name : Поезд на Париж / The 15:17 to Paris (2018) BDRip 720p
Encoded date : UTC 2018-05-19 21:45:49
Writing application : mkvmerge v8.1.0 ('Psychedelic Postcard') 64bit
Writing library : libebml v1.3.1 + libmatroska v1.4.2
Cover : Yes
Attachments : cover.jpg

Video
ID : 1
Format : AVC
Format/Info : Advanced Video Codec
Format profile : [email protected]
Format settings : CABAC / 10 Ref Frames
Format settings, CABAC : Yes
Format settings, ReFrames : 10 frames
Codec ID : V_MPEG4/ISO/AVC
Duration : 1 h 33 min
Bit rate : 4 908 kb/s
Width : 1 280 pixels
Height : 536 pixels
Display aspect ratio : 2.40:1
Frame rate mode : Constant
Frame rate : 23.976 (24000/1001) FPS
Color space : YUV
Chroma subsampling : 4:2:0
Bit depth : 8 bits
Scan type : Progressive
Bits/(Pixel*Frame) : 0.298
Stream size : 3.22 GiB (76%)
Title : The 15:17 to Paris (2018) optik.1557
Writing library : x264 core 155 r2901 7d0ff22
Encoding settings : cabac=1 / ref=10 / deblock=1:-2:-1 / analyse=0x3:0x113 / me=umh / subme=10 / psy=1 / psy_rd=1.05:0.01 / mixed_ref=1 / me_range=32 / chroma_me=1 / trellis=2 / 8x8dct=1 / cqm=0 / deadzone=21,11 / fast_pskip=0 / chroma_qp_offset=-3 / threads=6 / lookahead_threads=1 / sliced_threads=0 / nr=0 / decimate=1 / interlaced=0 / bluray_compat=0 / constrained_intra=0 / bframes=11 / b_pyramid=2 / b_adapt=2 / b_bias=0 / direct=1 / weightb=1 / open_gop=0 / weightp=2 / keyint=250 / keyint_min=23 / scenecut=40 / intra_refresh=0 / rc_lookahead=60 / rc=crf / mbtree=0 / crf=16.2 / qcomp=0.70 / qpmin=0 / qpmax=69 / qpstep=4 / vbv_maxrate=50000 / vbv_bufsize=62500 / crf_max=0.0 / nal_hrd=none / filler=0 / ip_ratio=1.40 / pb_ratio=1.30 / aq=3:0.85
Language : English
Default : Yes
Forced : No

Audio #1
ID : 2
Format : AC-3
Format/Info : Audio Coding 3
Codec ID : A_AC3
Duration : 1 h 33 min
Bit rate mode : Constant
Bit rate : 448 kb/s
Channel(s) : 6 channels
Channel positions : Front: L C R, Side: L R, LFE
Sampling rate : 48.0 kHz
Frame rate : 31.250 FPS (1536 SPF)
Bit depth : 16 bits
Compression mode : Lossy
Stream size : 301 MiB (7%)
Title : Дубляж (Blu-Ray)
Language : Russian
Service kind : Complete Main
Default : Yes
Forced : No

Audio #2
ID : 3
Format : AC-3
Format/Info : Audio Coding 3
Codec ID : A_AC3
Duration : 1 h 33 min
Bit rate mode : Constant
Bit rate : 640 kb/s
Channel(s) : 6 channels
Channel positions : Front: L C R, Side: L R, LFE
Sampling rate : 48.0 kHz
Frame rate : 31.250 FPS (1536 SPF)
Bit depth : 16 bits
Compression mode : Lossy
Stream size : 430 MiB (10%)
Title : Original
Language : English
Service kind : Complete Main
Default : No
Forced : No

Audio #3
ID : 4
Format : AC-3
Format/Info : Audio Coding 3
Codec ID : A_AC3
Duration : 1 h 33 min
Bit rate mode : Constant
Bit rate : 448 kb/s
Channel(s) : 6 channels
Channel positions : Front: L C R, Side: L R, LFE
Sampling rate : 48.0 kHz
Frame rate : 31.250 FPS (1536 SPF)
Bit depth : 16 bits
Compression mode : Lossy
Stream size : 301 MiB (7%)
Title : Descriptive (Для слабовидящих)
Language : English
Service kind : Complete Main
Default : No
Forced : No

Text #1
ID : 5
Format : UTF-8
Codec ID : S_TEXT/UTF8
Codec ID/Info : UTF-8 Plain Text
Duration : 1 h 31 min
Bit rate : 4 b/s
Count of elements : 61
Stream size : 2.88 KiB (0%)
Title : Форсированные
Language : Russian
Default : Yes
Forced : No

Text #2
ID : 6
Format : UTF-8
Codec ID : S_TEXT/UTF8
Codec ID/Info : UTF-8 Plain Text
Duration : 1 h 27 min
Bit rate : 105 b/s
Count of elements : 1624
Stream size : 67.5 KiB (0%)
Title : Полные
Language : Russian
Default : No
Forced : No

Text #3
ID : 7
Format : UTF-8
Codec ID : S_TEXT/UTF8
Codec ID/Info : UTF-8 Plain Text
Duration : 1 h 26 min
Bit rate : 77 b/s
Count of elements : 1621
Stream size : 49.2 KiB (0%)
Title : Full
Language : English
Default : No
Forced : No

Text #4
ID : 8
Format : UTF-8
Codec ID : S_TEXT/UTF8
Codec ID/Info : UTF-8 Plain Text
Duration : 1 h 28 min
Bit rate : 84 b/s
Count of elements : 1755
Stream size : 54.6 KiB (0%)
Title : SDH
Language : English
Default : No
Forced : No

Text #5
ID : 9
Format : UTF-8
Codec ID : S_TEXT/UTF8
Codec ID/Info : UTF-8 Plain Text
Duration : 1 h 28 min
Bit rate : 128 b/s
Count of elements : 1755
Stream size : 83.3 KiB (0%)
Title : SDH-Colored
Language : English
Default : No
Forced : No

Menu
00:00:00.000 : :Chapter 01
00:09:51.924 : :Chapter 02
00:19:23.203 : :Chapter 03
00:30:49.264 : :Chapter 04
00:44:00.304 : :Chapter 05
00:52:51.167 : :Chapter 06
01:04:22.608 : :Chapter 07
01:11:52.766 : :Chapter 08
01:21:46.151 : :Chapter 09
01:27:00.340 : :Chapter 10</div>
</div>

Трекер:  [ 20-Май-2018 01:30 ]

  

Скачать .torrent

Размер .torrent файла 11 KB


Размер: 4.23 GB
Хэш (hash) релиза: 17c17582772b43895dfdb0123ca7efcbede226e0
Подписка на обновления:

Торренты, похожие на Поезд на Париж The 15:17 to Paris скачать торрент

Форум Название Автор Размер S L Добавлен
Трейлеры и дополнительные материалы ·· Поезд на Париж / The 15:17 to Paris (Клинт Иствуд / Clint Eastwood) [2017, Триллер | Драма | История, BDRip 720p] дополнительные материалы Galfimbul 649370139619 MB 0 0 1527318089

10:01

26-Май-18

Зарубежные фильмы до 2016 ·· Поезд на Париж / The 15:17 to Paris (Клинт Иствуд / Clint Eastwood) [2018, США, триллер, драма, история, Blu-ray disc 1080p] [EUR] Dub + Sub Rus, Eng + Original Eng Galfimbul 2738700551325.51 GB 0 0 1526718703

11:31

19-Май-18

Зарубежные фильмы 2016-2018 (Новинки зарубежного кино) ·· Поезд на Париж / The 15:17 to Paris (Клинт Иствуд) [2018, Триллер, драма, история, Blu-ray EUR] Лицензия Galfimbul 2738700551325.51 GB 0 0 1526419405

00:23

16-Май-18

Зарубежные фильмы 2016-2018 (Новинки зарубежного кино) ·· Поезд на Париж / The 15:17 to Paris (Клинт Иствуд) [2018, Триллер, драма, история, BDRip 1080p] iTunes Galfimbul 71245191276.64 GB 0 0 1525932027

09:00

10-Май-18

Зарубежные фильмы 2016-2018 (Новинки зарубежного кино) ·· Поезд на Париж / The 15:17 to Paris (Клинт Иствуд) [2018, Триллер, драма, история, WEB-DL 720p] iTunes Galfimbul 27840089832.59 GB 0 0 1525405207

06:40

4-Май-18

Зарубежные фильмы 2016-2018 (Новинки зарубежного кино) ·· Поезд на Париж / The 15:17 to Paris (Клинт Иствуд) [2018, Триллер, драма, история, WEB-DL 1080p] iTunes Galfimbul 37343394303.48 GB 0 0 1525338013

12:00

3-Май-18

Еще никто не оставлял запись к записи скачать торрент Поезд на Париж The 15:17 to Paris . Будь первым!

!Обратная связь