Rumiko Takahashi Anthology | Rurouni Kenshin | Ryuugajou Nanana no Maizoukin

Скачать порно через торрент Lilitales - act.1 Silver Knightess In Captivity UnionPeer.org бесплатно онлайн HD качество

Скачать новое порно 2015, 2014 новинки через торрент UnionPeer.org

Порно торрент бесплатно ЮнионПир.орг

Статистика раздачи
Размер:  164 MB   |    Зарегистрирован:  1 месяц 6 дней   |    .torrent скачан:  339 раз   |   
Раздают:  1  
   
загрузка...
 
Автор Сообщение

Galfimbul

avatar Galfimbul


Lilitales - act.1 Silver Knightess In Captivity
Lilitales -リリテイルズ- act.1 虜囚の銀騎士

Год выпуска: 2018
Жанр: rape, shoujo, oral, creampie, various
Серии: ep. 1 of 1
Продолжительность: 19mn
Цензура: Есть во всех файлах

Озвучка: Японская оригинальная

Студия: SELFISH

Описание: The anime adaptation of "Lilitales", a doujin game by tunnel No,73 which has gained huge popularity! This is Volume 1! A knightess Luna goes out to rescue the Princess Jill who has been abducted. While gathering information, she sells herself to a slave trader Batil. On the other hand, Jill is restrained at an underground slave auction. There she is exhibited as an object to be sold and eventually loses her virginity. Despite Luna''s effort to save her, Luna also falls into the hands of the villain. Cless comes to rescue them, but...

http://www.dlsite.com/ecchi-eng/work/=/product_id/RE224976.html

Доп. информация: Опять лого.

Качество видео: WEB-DL
Разрешение видео: 720p
Формат видео: MKV
Видео: 1280-720, 16-9, 23.976 fps, AVC, 881 kbps
Аудио: jpn, AAC, Stereo, 48.0 KHz, 320 kbps
General
Complete name : Lilitales_-_act.1_silver_knightess_in_captivity_[logo][ECAC9555].mp4
Format : MPEG-4
Format profile : Base Media / Version 2
Codec ID : mp42 (isom/iso2/avc1/mp41)
File size : 164 MiB
Duration : 18 min 57 s
Overall bit rate mode : Variable
Overall bit rate : 1 207 kb/s
Encoded date : UTC 2018-05-18 03:53:33
Tagged date : UTC 2018-05-18 03:53:33
Writing application : HandBrake 1.0.7 2017062500

Video
ID : 1
Format : AVC
Format/Info : Advanced Video Codec
Format profile : [email protected]
Format settings : CABAC / 5 Ref Frames
Format settings, CABAC : Yes
Format settings, RefFrames : 5 frames
Codec ID : avc1
Codec ID/Info : Advanced Video Coding
Duration : 18 min 57 s
Bit rate : 881 kb/s
Width : 1 280 pixels
Height : 720 pixels
Display aspect ratio : 16:9
Frame rate mode : Variable
Frame rate : 23.976 (24000/1001) FPS
Minimum frame rate : 23.974 FPS
Maximum frame rate : 23.981 FPS
Color space : YUV
Chroma subsampling : 4:2:0
Bit depth : 8 bits
Scan type : Progressive
Bits/(Pixel*Frame) : 0.040
Stream size : 119 MiB (73%)
Writing library : x264 core 148 r2708 86b7198
Encoding settings : cabac=1 / ref=5 / deblock=1:0:0 / analyse=0x1:0x111 / me=umh / subme=8 / psy=1 / psy_rd=1.00:0.00 / mixed_ref=1 / me_range=16 / chroma_me=1 / trellis=1 / 8x8dct=0 / cqm=0 / deadzone=21,11 / fast_pskip=1 / chroma_qp_offset=-2 / threads=12 / lookahead_threads=2 / sliced_threads=0 / nr=0 / decimate=1 / interlaced=0 / bluray_compat=0 / constrained_intra=0 / bframes=3 / b_pyramid=2 / b_adapt=2 / b_bias=0 / direct=3 / weightb=1 / open_gop=0 / weightp=2 / keyint=240 / keyint_min=24 / scenecut=40 / intra_refresh=0 / rc_lookahead=50 / rc=crf / mbtree=1 / crf=23.0 / qcomp=0.60 / qpmin=0 / qpmax=69 / qpstep=4 / ip_ratio=1.40 / aq=1:1.00
Encoded date : UTC 2018-05-18 03:53:33
Tagged date : UTC 2018-05-18 03:53:33
Color range : Limited
Color primaries : BT.709
Transfer characteristics : BT.709
Matrix coefficients : BT.709

Audio
ID : 2
Format : AAC
Format/Info : Advanced Audio Codec
Format profile : LC
Codec ID : mp4a-40-2
Duration : 18 min 57 s
Bit rate mode : Variable
Bit rate : 320 kb/s
Channel(s) : 2 channels
Channel positions : Front: L R
Sampling rate : 48.0 kHz
Frame rate : 46.875 FPS (1024 SPF)
Compression mode : Lossy
Stream size : 43.4 MiB (27%)
Title : Stereo / Stereo
Default : Yes
Alternate group : 1
Encoded date : UTC 2018-05-18 03:53:33
Tagged date : UTC 2018-05-18 03:53:33


Трекер:  [ 18-Май-2018 23:20 ]

  

Скачать .torrent

Размер .torrent файла 13 KB


Размер: 164 MB
Хэш (hash) релиза: 76e7ffca0ec2ded778c1479d50f93849b284e37b

Еще никто не оставлял запись к записи скачать торрент Lilitales - act.1 Silver Knightess In Captivity . Будь первым!

!Обратная связь