The Titan | Kya Haal Mr Panchaal | Season 3 Episode 19 And the Kilt Trip

Скачать через торрент Рассмеши меня Humor Me Фильм бесплатно в хорошем качестве torrent

Скачивайте на UnionPeer.org фильмы через торрент без регистрации. Новинки кино в хорошем качестве через торрент. На UnionPeer.org можно скачать через торрент фильмы 2014 и 2015 годов. Самые новые фильмы.

Скачать торрент Рассмеши меня Humor Me бесплатно через .torrent фильм мультфильм сериал

Статистика раздачи
Размер:  11.55 GB   |    Зарегистрирован:  1 месяц 6 дней   |    .torrent скачан:  30 раз   |   
Раздают:  1  
   
загрузка...
 
Автор Сообщение

Galfimbul

avatar Galfimbul


Рассмеши меня / Humor Me

Страна: США
Жанр: Комедия
Год выпуска: 2017
Продолжительность: 01:33:25

Перевод: Любительский (многоголосый закадровый) HDrezka Studio
Субтитры: Русские, английские
Оригинальная аудиодорожка: Английский

Режиссер: Сэм Хоффман / Sam Hoffman

В ролях: Джемейн Клемент, Эллиотт Гулд, Ингрид Майклсон, Мария Диззия, Присцилла Лопес, Джои Злотник, Уилли С. Карпентер, Ле Кланше Ду Рэнд, Розмари Принц, Энни Поттс

Описание: Нейт не так давно был преуспевающим драматургом, но череда жизненных испытаний сломила героя. От него ушла супруга, забрав с собой сына, а сам Нейт полностью в себе разочаровался. Ему даже пришлось перебраться к отцу, так как он попросту не мог оплачивать аренду. Папа, в отличие от основного действующего персонажа, все неприятности и испытания встречает с юмором. Такое поведение Нейта жутко раздражает, но ему придется мириться с поведением родителя. Отец даже находит работу для вечно хмурого сына, вот только творческая личность не может жить без искусства. Тип релиза: BDRip 1080p
Контейнер: MKV

Видео: MPEG-4 AVC, 1080p, 1920:1036, 16.0 Mb/s, 23.976 fps
Аудио 1: АС3, 2 ch, 48 kHz, 192 kbps Русский MVO HDrezka
Аудио 2: DTS, 6 ch, 48 kHz, 1 509 kbps Английский
Формат субтитров: softsub (SRT)
General
Unique ID : 292951026333839434106192677883765107309 (0xDC6450BD1B2F71C17703FF8F5B8CAA6D)
Complete name : G:\ФИЛЬМЫ\RuTRACKER\Humor.Me.2017.1080p.BDRip.mkv
Format : Matroska
Format version : Version 4 / Version 2
File size : 11.6 GiB
Duration : 1 h 33 min
Overall bit rate : 17.7 Mb/s
Encoded date : UTC 2018-05-17 23:48:14
Writing application : mkvmerge v20.0.0 ('I Am The Sun') 64-bit
Writing library : libebml v1.3.5 + libmatroska v1.4.8

Video
ID : 1
Format : AVC
Format/Info : Advanced Video Codec
Format profile : [email protected]
Format settings : CABAC / 4 Ref Frames
Format settings, CABAC : Yes
Format settings, RefFrames : 4 frames
Codec ID : V_MPEG4/ISO/AVC
Duration : 1 h 33 min
Bit rate : 16.0 Mb/s
Width : 1 920 pixels
Height : 1 036 pixels
Display aspect ratio : 1.85:1
Frame rate mode : Constant
Frame rate : 23.976 (24000/1001) FPS
Color space : YUV
Chroma subsampling : 4:2:0
Bit depth : 8 bits
Scan type : Progressive
Bits/(Pixel*Frame) : 0.335
Stream size : 10.4 GiB (90%)
Writing library : x264 core 152 r2851 ba24899
Encoding settings : cabac=1 / ref=4 / deblock=1:-3:-3 / analyse=0x3:0x133 / me=umh / subme=10 / psy=1 / psy_rd=1.00:0.00 / mixed_ref=1 / me_range=48 / chroma_me=1 / trellis=2 / 8x8dct=1 / cqm=0 / deadzone=21,11 / fast_pskip=0 / chroma_qp_offset=-2 / threads=12 / lookahead_threads=1 / sliced_threads=0 / nr=0 / decimate=0 / interlaced=0 / bluray_compat=0 / constrained_intra=0 / bframes=6 / b_pyramid=2 / b_adapt=2 / b_bias=0 / direct=3 / weightb=0 / open_gop=0 / weightp=2 / keyint=230 / keyint_min=22 / scenecut=40 / intra_refresh=0 / rc_lookahead=60 / rc=2pass / mbtree=1 / bitrate=16000 / ratetol=1.0 / qcomp=0.60 / qpmin=0 / qpmax=69 / qpstep=4 / cplxblur=20.0 / qblur=0.5 / vbv_maxrate=50000 / vbv_bufsize=50000 / nal_hrd=none / filler=0 / ip_ratio=1.40 / aq=1:1.00
Language : English
Default : Yes
Forced : No

Audio #1
ID : 2
Format : AC-3
Format/Info : Audio Coding 3
Codec ID : A_AC3
Duration : 1 h 33 min
Bit rate mode : Constant
Bit rate : 192 kb/s
Channel(s) : 2 channels
Channel positions : Front: L R
Sampling rate : 48.0 kHz
Frame rate : 31.250 FPS (1536 SPF)
Bit depth : 16 bits
Compression mode : Lossy
Stream size : 128 MiB (1%)
Language : Russian
Service kind : Complete Main
Default : Yes
Forced : No

Audio #2
ID : 3
Format : DTS
Format/Info : Digital Theater Systems
Codec ID : A_DTS
Duration : 1 h 33 min
Bit rate mode : Constant
Bit rate : 1 509 kb/s
Channel(s) : 6 channels
Channel positions : Front: L C R, Side: L R, LFE
Sampling rate : 48.0 kHz
Frame rate : 93.750 FPS (512 SPF)
Bit depth : 24 bits
Compression mode : Lossy
Stream size : 1 008 MiB (9%)
Language : English
Default : No
Forced : No

Text #1
ID : 4
Format : UTF-8
Codec ID : S_TEXT/UTF8
Codec ID/Info : UTF-8 Plain Text
Duration : 1 h 27 min
Bit rate : 127 b/s
Count of elements : 1494
Stream size : 81.8 KiB (0%)
Language : Russian
Default : No
Forced : No

Text #2
ID : 5
Format : UTF-8
Codec ID : S_TEXT/UTF8
Codec ID/Info : UTF-8 Plain Text
Duration : 1 h 28 min
Bit rate : 73 b/s
Count of elements : 1518
Stream size : 47.4 KiB (0%)
Language : English
Default : No
Forced : No
18.05.18 перезалит, добавлена озвучка.
Если появится профессиональная, перезалью снова


Трекер:  [ 18-Май-2018 04:01 ]

  

Скачать .torrent

Размер .torrent файла 58 KB


Размер: 11.55 GB
Хэш (hash) релиза: 32719ffaa65d16f6d24619a06d3c46c281cdbaf8
Подписка на обновления:

Торренты, похожие на Рассмеши меня Humor Me скачать торрент

Форум Название Автор Размер S L Добавлен
Зарубежные фильмы 2016-2018 (Новинки зарубежного кино) ·· Рассмеши меня / Humor Me (Сэм Хоффман) [2017, Комедия, BDRip] HDrezka Studio Galfimbul 15715281361.46 GB 0 0 1526468429

14:00

16-Май-18

Зарубежные фильмы 2016-2018 (Новинки зарубежного кино) ·· Рассмеши меня / Humor Me (Сэм Хоффман) [2017, Комедия, BDRemux 1080p] HDrezka Studio Galfimbul 2454508685822.86 GB 0 0 1526451238

09:13

16-Май-18

Еще никто не оставлял запись к записи скачать торрент Рассмеши меня Humor Me . Будь первым!

!Обратная связь