Ilona M. | Koh-Lanta Vietnam | Akilandakodi Brahmandanayagan(Tamil)

Скачать порно через торрент The Ultimate Cumshot Compilation Part 15 Girls in Glasses 720p UnionPeer.org бесплатно онлайн HD качество

Скачать новое порно 2015, 2014 новинки через торрент UnionPeer.org

Порно торрент бесплатно ЮнионПир.орг

Статистика раздачи
Размер:  2.22 GB   |    Зарегистрирован:  9 дней   |    .torrent скачан:  336 раз   |   
Раздают:  1  
   
загрузка...
 
Автор Сообщение

Galfimbul

avatar Galfimbul


The Ultimate Cumshot Compilation Part 15 Girls in Glasses 720p [/IMG][/URL]
Год производства: 2018 г.
Жанр: Compilation Swallow Cumshot Facial
Описание: Cumshot Compilation part 15, Two hours, Edited on Linux by Yam1092

Качество видео: WEB-DL
Формат видео: MP4
Видео: AVC Video 1280x720 25.00fps
Аудио: AVC Video 1280x720 25.00fps
[/URL]
The Ultimate Cumshot Compilation Part 15 Girls in Glasses.mp4
Format : MPEG-4
Format profile : Base Media / Version 2
Codec ID : mp42 (isom/iso2/avc1/mp41)
File size : 2.22 GiB
Duration : 2h 2mn
Overall bit rate : 2 594 Kbps
Movie name : The Ultimate Cumshot Compilation Part 15 Girls in Glasses
Encoded date : UTC 2018-04-09 19:58:13
Tagged date : UTC 2018-04-09 19:58:13
Writing application : HandBrake 0.10.2 2016021200

Video
ID : 1
Format : AVC
Format/Info : Advanced Video Codec
Format profile : [email protected]
Format settings, CABAC : Yes
Format settings, ReFrames : 4 frames
Codec ID : avc1
Codec ID/Info : Advanced Video Coding
Duration : 2h 2mn
Bit rate : 2 424 Kbps
Width : 1 280 pixels
Height : 720 pixels
Display aspect ratio : 16:9
Frame rate mode : Variable
Frame rate : 24.000 fps
Minimum frame rate : 15.873 fps
Maximum frame rate : 24.000 fps
Color space : YUV
Chroma subsampling : 4:2:0
Bit depth : 8 bits
Scan type : Progressive
Bits/(Pixel*Frame) : 0.110
Stream size : 2.07 GiB (93%)
Writing library : x264 core 148 r2643 5c65704
Encoding settings : cabac=1 / ref=1 / deblock=1:0:0 / analyse=0x1:0x111 / me=hex / subme=2 / psy=1 / psy_rd=1.00:0.00 / mixed_ref=0 / me_range=16 / chroma_me=1 / trellis=0 / 8x8dct=0 / cqm=0 / deadzone=21,11 / fast_pskip=1 / chroma_qp_offset=0 / threads=6 / lookahead_threads=2 / sliced_threads=0 / nr=0 / decimate=1 / interlaced=0 / bluray_compat=0 / constrained_intra=0 / bframes=3 / b_pyramid=2 / b_adapt=1 / b_bias=0 / direct=1 / weightb=1 / open_gop=0 / weightp=1 / keyint=240 / keyint_min=24 / scenecut=40 / intra_refresh=0 / rc_lookahead=10 / rc=crf / mbtree=1 / crf=20.0 / qcomp=0.60 / qpmin=0 / qpmax=69 / qpstep=4 / vbv_maxrate=20000 / vbv_bufsize=25000 / crf_max=0.0 / nal_hrd=none / filler=0 / ip_ratio=1.40 / aq=1:1.00
Encoded date : UTC 2018-04-09 19:58:13
Tagged date : UTC 2018-04-09 19:58:13
Color range : Limited
Color primaries : BT.709
Transfer characteristics : BT.709
Matrix coefficients : BT.709

Audio
ID : 2
Format : AAC
Format/Info : Advanced Audio Codec
Format profile : LC
Codec ID : 40
Duration : 2h 2mn
Bit rate mode : Constant
Bit rate : 164 Kbps
Channel(s) : 2 channels
Channel positions : Front: L R
Sampling rate : 48.0 KHz
Frame rate : 46.875 fps (1024 spf)
Compression mode : Lossy
Stream size : 144 MiB (6%)
Title : Stereo / Stereo
Default : Yes
Alternate group : 1
Encoded date : UTC 2018-04-09 19:58:13
Tagged date : UTC 2018-04-09 19:58:13


Трекер:  [ 16-Май-2018 18:36 ]

  

Скачать .torrent

Размер .torrent файла 45 KB


Размер: 2.22 GB
Хэш (hash) релиза: 37caca73f13e1b7e3d5d60090be8139c67a96f22

Еще никто не оставлял запись к записи скачать торрент The Ultimate Cumshot Compilation Part 15 Girls in Glasses 720p . Будь первым!

!Обратная связь