Weekly Idol Episode 230 | Humans Season 3 torrent | Download

Скачать через торрент [VIDEO] Кольцо нибелунгов Ring of the Nibelungs бесплатно русская версия torrent активатор

Статистика раздачи
Размер:  1.5 GB   |    Зарегистрирован:  2 месяца 7 дней   |    .torrent скачан:  14 раз   |   
Раздают:  1  
   
загрузка...
 
Автор Сообщение

Galfimbul

avatar Galfimbul


Кольца нибелунгов / Ring of the Nibelungs (2 части)

Год выпуска: 2004
Страна: Германия, Италия, Великобритания, США
Жанр: фэнтези, приключения
Продолжительность: 01:30:05+01:26:34
Перевод: русский Профессиональный (многоголосый, закадровый)
Субтитры: нет
Режиссер: Ули Эдель / Uli Edel
В ролях: Бенно Фурманн, Кристанна Локен, Алисия Уитт, Джулиан Сэндс, Сэмюэл Уэст, Макс Фон Сюдов, Роберт Паттинсон и другие .
Описание: Это история кузнеца Зигфрида, который не подозревает о том, что является наследником трона, завоеванного королевства. Но, даже оставаясь обыкновенным кузнецом, он все равно обретает славу в Бургундии, победив наводившего страх на эти места, дракона Фафнира. Не приняв всерьез надпись, говорящую о проклятии, которое постигнет того, кто посягнет на сокровища, охранявшиеся драконом, он входит в кладовую, чем подвергает опасности свою любовь к прекрасной, королеве-воительнице Брунхильде.
Релиз группы

Качество: DVDRip / рип с DVD9
Формат: MP4
Видео кодек: H.264
Аудио кодек: AACПервая часть

<div class="post-box-default">
<div class="post-box" style="border-color: #000000; background: #E6E6FA;">Видео: 640x358 AR:1.79 1080 kbps 25 fps
Аудио: [Russian] 2ch 48 kHz 128 kbps - [MVO] Профессиональный (многоголосый, закадровый)
</div>
</div>
Вторая часть

<div class="post-box-default">
<div class="post-box" style="border-color: #000000; background: #E6E6FA;">Видео: 640x358 AR:1.79 1080 kbps 25 fps
Аудио: [Russian] 2ch 48 kHz 128 kbps - [MVO] Профессиональный (многоголосый, закадровый)
</div>
</div>
<div class="sp-wrap">
<div class="sp-head folded">Logx264</div>
<div class="sp-body">avs [info]: 640x358p 1:1 @ 25/1 fps (cfr)
x264 [info]: using SAR=1/1
x264 [info]: using cpu capabilities: MMX2 SSE2Fast SSSE3 SSE4.2 AVX FMA3 BMI2 AVX2
x264 [info]: profile High, level 4.1

x264 [info]: frame I:1237 Avg QP:16.79 size: 30975
x264 [info]: frame P:33209 Avg QP:20.10 size: 10490
x264 [info]: frame B:100681 Avg QP:22.03 size: 3406
x264 [info]: consecutive B-frames: 3.0% 3.8% 14.0% 27.0% 19.9% 24.2% 5.5% 2.5%
x264 [info]: mb I I16..4: 5.8% 76.6% 17.6%
x264 [info]: mb P I16..4: 1.0% 11.5% 1.7% P16..4: 31.7% 31.6% 11.8% 1.7% 0.2% skip: 8.8%
x264 [info]: mb B I16..4: 0.1% 1.5% 0.2% B16..8: 31.1% 17.6% 2.7% direct: 5.4% skip:41.3% L0:38.5% L1:43.7% BI:17.8%
x264 [info]: 8x8 transform intra:80.7% inter:63.1%
x264 [info]: direct mvs spatial:96.6% temporal:3.4%
x264 [info]: coded y,uvDC,uvAC intra: 83.6% 74.4% 43.2% inter: 23.8% 16.4% 5.0%
x264 [info]: i16 v,h,dc,p: 26% 14% 8% 52%
x264 [info]: i8 v,h,dc,ddl,ddr,vr,hd,vl,hu: 13% 7% 7% 9% 13% 14% 12% 13% 13%
x264 [info]: i4 v,h,dc,ddl,ddr,vr,hd,vl,hu: 18% 6% 5% 8% 14% 15% 12% 11% 11%
x264 [info]: i8c dc,h,v,p: 33% 29% 21% 17%
x264 [info]: Weighted P-Frames: Y:14.7% UV:7.8%
x264 [info]: ref P L0: 52.6% 13.0% 15.8% 5.4% 4.3% 3.3% 3.0% 2.0% 0.4% 0.0%
x264 [info]: ref B L0: 85.0% 7.7% 3.1% 1.6% 1.2% 0.9% 0.4%
x264 [info]: ref B L1: 96.6% 3.4%
x264 [info]: kb/s:1079.90

encoded 135127 frames, 27.14 fps, 1079.90 kb/s
GeneralComplete name : D:\Torrents\Kolco nibelungov (2 chasti).2004.DVDRip.x264.640x\Kolco nibelungov (Pervaya chast).2004.DVDRip.x264.640x.rip by Frost O.S.mp4Format : MPEG-4Format profile : 3GPP Media Release 6 BasicCodec ID : 3gp6 (isom/3gp6/avc1/mp42)File size : 781 MiBDuration : 1 h 30 minOverall bit rate mode : VariableOverall bit rate : 1 212 kb/sEncoded date : UTC 2018-05-16 08:44:49Tagged date : UTC 2018-05-16 08:44:49Writing application : Yamb 2.1.0.0

VideoID : 1Format : AVCFormat/Info : Advanced Video CodecFormat profile : [email protected] settings, CABAC : YesFormat settings, ReFrames : 8 framesCodec ID : avc1Codec ID/Info : Advanced Video CodingDuration : 1 h 30 minBit rate : 1 080 kb/sMaximum bit rate : 4 113 kb/sWidth : 640 pixelsHeight : 358 pixelsDisplay aspect ratio : 16:9Frame rate mode : ConstantFrame rate : 25.000 FPSColor space : YUVChroma subsampling : 4:2:0Bit depth : 8 bitsScan type : ProgressiveBits/(Pixel*Frame) : 0.189Stream size : 696 MiB (89%)Writing library : x264 core 152 r2851 ba24899Encoding settings : cabac=1 / ref=8 / deblock=1:-1:-1 / analyse=0x3:0x133 / me=umh / subme=11 / psy=1 / psy_rd=1.00:0.00 / mixed_ref=1 / me_range=48 / chroma_me=1 / trellis=2 / 8x8dct=1 / cqm=0 / deadzone=21,11 / fast_pskip=0 / chroma_qp_offset=-2 / threads=6 / lookahead_threads=1 / sliced_threads=0 / nr=0 / decimate=0 / interlaced=0 / bluray_compat=0 / constrained_intra=0 / bframes=7 / b_pyramid=2 / b_adapt=2 / b_bias=0 / direct=3 / weightb=1 / open_gop=0 / weightp=2 / keyint=250 / keyint_min=25 / scenecut=40 / intra_refresh=0 / rc=2pass / mbtree=0 / bitrate=1080 / ratetol=1.0 / qcomp=0.70 / qpmin=0 / qpmax=69 / qpstep=4 / cplxblur=20.0 / qblur=0.5 / ip_ratio=1.40 / pb_ratio=1.30 / aq=2:0.80Encoded date : UTC 2018-05-16 06:36:10Tagged date : UTC 2018-05-16 08:44:59Color range : LimitedColor primaries : BT.601 PALTransfer characteristics : BT.470 System B, BT.470 System GMatrix coefficients : BT.601

AudioID : 2Format : AACFormat/Info : Advanced Audio CodecFormat profile : LCCodec ID : 40Duration : 1 h 30 minBit rate mode : VariableBit rate : 128 kb/sMaximum bit rate : 137 kb/sChannel(s) : 2 channelsChannel positions : Front: L RSampling rate : 48.0 kHzFrame rate : 46.875 FPS (1024 spf)Compression mode : LossyStream size : 82.5 MiB (11%)Encoded date : UTC 2018-05-16 06:43:51Tagged date : UTC 2018-05-16 08:44:59
</div>
</div>
<div class="sp-wrap">
<div class="sp-head folded">Logx264</div>
<div class="sp-body">avs [info]: 640x358p 1:1 @ 25/1 fps (cfr)
x264 [info]: using SAR=1/1
x264 [info]: using cpu capabilities: MMX2 SSE2Fast SSSE3 SSE4.2 AVX FMA3 BMI2 AVX2
x264 [info]: profile High, level 4.1

x264 [info]: frame I:1176 Avg QP:14.63 size: 28639
x264 [info]: frame P:29514 Avg QP:18.51 size: 10546
x264 [info]: frame B:99169 Avg QP:20.58 size: 3592
x264 [info]: consecutive B-frames: 2.4% 2.8% 11.5% 24.3% 16.0% 29.2% 8.3% 2.4% 2.0% 0.9%
x264 [info]: mb I I16..4: 8.6% 72.5% 18.9%
x264 [info]: mb P I16..4: 1.3% 12.9% 2.0% P16..4: 30.7% 31.4% 11.6% 1.7% 0.2% skip: 8.3%
x264 [info]: mb B I16..4: 0.2% 1.9% 0.2% B16..8: 32.6% 19.6% 2.9% direct: 6.1% skip:36.5% L0:41.8% L1:42.2% BI:16.1%
x264 [info]: 8x8 transform intra:79.3% inter:62.0%
x264 [info]: direct mvs spatial:96.3% temporal:3.7%
x264 [info]: coded y,uvDC,uvAC intra: 79.9% 70.6% 38.8% inter: 24.8% 18.0% 5.5%
x264 [info]: i16 v,h,dc,p: 45% 12% 8% 36%
x264 [info]: i8 v,h,dc,ddl,ddr,vr,hd,vl,hu: 14% 7% 9% 8% 12% 13% 11% 12% 13%
x264 [info]: i4 v,h,dc,ddl,ddr,vr,hd,vl,hu: 18% 6% 10% 8% 12% 14% 10% 11% 11%
x264 [info]: i8c dc,h,v,p: 31% 31% 22% 17%
x264 [info]: Weighted P-Frames: Y:15.9% UV:7.4%
x264 [info]: ref P L0: 49.3% 11.3% 16.5% 6.3% 5.0% 3.8% 3.3% 2.0% 2.0% 0.4% 0.0%
x264 [info]: ref B L0: 79.2% 9.8% 4.3% 2.3% 1.7% 1.4% 0.9% 0.3%
x264 [info]: ref B L1: 95.6% 4.4%
x264 [info]: kb/s:1079.87

encoded 129859 frames, 26.41 fps, 1079.87 kb/s
GeneralComplete name : D:\Torrents\Kolco nibelungov (2 chasti).2004.DVDRip.x264.640x\Kolco nibelungov (Vtoraya chast).2004.DVDRip.x264.640x.rip by Frost O.S.mp4Format : MPEG-4Format profile : 3GPP Media Release 6 BasicCodec ID : 3gp6 (isom/3gp6/avc1/mp42)File size : 750 MiBDuration : 1 h 26 minOverall bit rate mode : VariableOverall bit rate : 1 212 kb/sEncoded date : UTC 2018-05-16 08:47:01Tagged date : UTC 2018-05-16 08:47:01Writing application : Yamb 2.1.0.0

VideoID : 1Format : AVCFormat/Info : Advanced Video CodecFormat profile : [email protected] settings, CABAC : YesFormat settings, ReFrames : 9 framesCodec ID : avc1Codec ID/Info : Advanced Video CodingDuration : 1 h 26 minBit rate : 1 080 kb/sMaximum bit rate : 3 610 kb/sWidth : 640 pixelsHeight : 358 pixelsDisplay aspect ratio : 16:9Frame rate mode : ConstantFrame rate : 25.000 FPSColor space : YUVChroma subsampling : 4:2:0Bit depth : 8 bitsScan type : ProgressiveBits/(Pixel*Frame) : 0.189Stream size : 669 MiB (89%)Writing library : x264 core 152 r2851 ba24899Encoding settings : cabac=1 / ref=9 / deblock=1:-1:-1 / analyse=0x3:0x133 / me=umh / subme=11 / psy=1 / psy_rd=1.05:0.00 / mixed_ref=1 / me_range=48 / chroma_me=1 / trellis=2 / 8x8dct=1 / cqm=0 / deadzone=21,11 / fast_pskip=0 / chroma_qp_offset=-2 / threads=6 / lookahead_threads=1 / sliced_threads=0 / nr=0 / decimate=0 / interlaced=0 / bluray_compat=0 / constrained_intra=0 / bframes=9 / b_pyramid=2 / b_adapt=2 / b_bias=0 / direct=3 / weightb=1 / open_gop=0 / weightp=2 / keyint=250 / keyint_min=25 / scenecut=40 / intra_refresh=0 / rc=2pass / mbtree=0 / bitrate=1080 / ratetol=1.0 / qcomp=0.70 / qpmin=0 / qpmax=69 / qpstep=4 / cplxblur=20.0 / qblur=0.5 / ip_ratio=1.40 / pb_ratio=1.30 / aq=3:0.90Encoded date : UTC 2018-05-16 08:27:43Tagged date : UTC 2018-05-16 08:47:04Color range : LimitedColor primaries : BT.601 PALTransfer characteristics : BT.470 System B, BT.470 System GMatrix coefficients : BT.601

AudioID : 2Format : AACFormat/Info : Advanced Audio CodecFormat profile : LCCodec ID : 40Duration : 1 h 26 minBit rate mode : VariableBit rate : 128 kb/sMaximum bit rate : 134 kb/sChannel(s) : 2 channelsChannel positions : Front: L RSampling rate : 48.0 kHzFrame rate : 46.875 FPS (1024 spf)Compression mode : LossyStream size : 79.3 MiB (11%)Encoded date : UTC 2018-05-16 08:40:28Tagged date : UTC 2018-05-16 08:47:04
</div>
</div>

Трекер:  [ 16-Май-2018 12:06 ]

  

Скачать .torrent

Размер .torrent файла 15 KB


Размер: 1.5 GB
Хэш (hash) релиза: cbeb18c2f4320afea83d4068be95994b63915a67

Еще никто не оставлял запись к записи скачать торрент [VIDEO] Кольцо нибелунгов Ring of the Nibelungs . Будь первым!

!Обратная связь