Download mp3 | 1x74 Querer Sin Limites | Vishwaroopam 2 Hindi Dubbed Full Movie

Скачать через торрент Дагестан. Начало Второй Чеченской Фильм бесплатно в хорошем качестве torrent

Скачивайте на UnionPeer.org фильмы через торрент без регистрации. Новинки кино в хорошем качестве через торрент. На UnionPeer.org можно скачать через торрент фильмы 2014 и 2015 годов. Самые новые фильмы.

Скачать торрент Дагестан. Начало Второй Чеченской бесплатно через .torrent фильм мультфильм сериал

Статистика раздачи
Размер:  385 MB   |    Зарегистрирован:  3 месяца 4 дня   |    .torrent скачан:  22 раза   |   
Раздают:  1  
   
загрузка...
 
Автор Сообщение

Galfimbul

avatar Galfimbul


Дагестан. Начало Второй Чеченской (НТВ)

Продолжаю риповать накопившееся на кассетах.

Этот фильм состоит из 5-ти репортажей непосредственно с мест боевых действий. Сюжеты подготовлены разными корреспондентами НТВ, но все они посвящены одной теме – вторжению Басая в Дагестан.
Каждый сюжет предваряется фамилией и именем автора, и мы можем посмотреть различные точки зрения.
Для меня лично было интересно наблюдать за метаморфозой некоторых “деятелей” нашей прессы. Некоторых. Времена изменились, Гусинскому вставили шершавого по самые гланды и сразу стало как-то не модно поливать дерьмом армию. Откровенное поливание дерьмом до этого называлось “свободой слова”, вот только свобода эта была в одни ворота. В пользу чеченов, естественно. А здесь появились хоть какие-то намёки на объективность. Правда у Аркаши Мамонтова ещё встречаются выражения типа “чеченские бойцы”, но это уже не так режет слух. Сейчас Аркаша специализируется на половых извращенцах, последний его фильм о педофилах возмутил даже “Московский Комсомолец”. Уж очень любит дядечка смаковать подробности. Впрочем, хрен с ним, пусть про Масюк снимает.

Фильм мне понравился. Он не однобокий, как многие сюжеты до него, здесь показана война с разных сторон. И победные и тяжёлые моменты. И неизлечимый бардак в действиях разных родов войск, и самоотверженность простых военнослужащих.
Вот капитан Игорь Дубовик рассказывает о том, как практически голыми руками приходилось штурмовать дагестанское горное село. Посмотрите на его лицо.

Простой мужик, на гражданке на него и внимание не обратишь, ну, типа, очкарик какой-то мимо прошёл… А вся война руками таких людей делалась. Не самолётами, не танками….

А вот этот кадр мне особенно запомнился. Когда Басай в Дагестан вторгся, я отдыхал за бугром и, естественно, ничего об этом не знал. Накануне поцапался в трамвае с негром (хоть папуас и сам виноват, но до сих пор стыдно, надо быть выдержанней) и потому до вечера сидел в номере, смотрел телевизор. И весь день крутили эти съёмки агентства Рейтерс. По голландски я ни бельмеса и потому никак не мог понять, какого чёрта в телевизоре столь часто мелькает богопротивная рожа Басая и этот вот чурбан, что в позе “я присесть слегка поср…ь” выпускает пол рожка за одну очередь? Потом уже знакомые из группы сказали, что опять война началась. Чтож, этого и следовало ожидать. Но вот этот откровенно понтующий дядя на всю жизнь запомнился. Его ча-а-сто крутили. Символ, бл.., отваги <img class="smile" src="//static.t-ru.org/smiles/icon_biggrin.gif" alt=""> .

Ладно, хватит слов, надо кино смотреть.

Данные по файлу получены утилитой GSpot v2.52:

Размер: 384 MB (or 393,752 KB or 403,202,048 bytes)
Продолжительность: 00:42:38 (63 963 frames)
Видео: 512 x 384, 25.007 fps, XviD v1.0.3 – 1198 kbps, один проход, 0.244 Qf
Аудио: MPEG Layer 3, 22050Hz 56 kb/s total (2 chnls)
ОбщееПолное имя : F:\Dagestan - Voina (TVRip - NTV).aviФормат : AVIФормат/Информация : Audio Video InterleaveРазмер файла : 385 МбайтПродолжительность : 42 м.Общий поток : 1261 Кбит/секБиблиотека кодирования : VirtualDub build 18160/release

ВидеоИдентификатор : 0Формат : MPEG-4 VisualПрофиль формата : Advanced [email protected]Параметр BVOP формата : 2Параметр QPel формата : ДаПараметр GMC формата : 3 точки переходаПараметр матрицы формата : Default (H.263)Режим смешивания : Сжатый битовый потокИдентификатор кодека : XVIDИдентификатор кодека/Подсказка : XviDПродолжительность : 42 м.Битрейт : 1195 Кбит/секШирина : 512 пикселейВысота : 384 пикселяСоотношение сторон : 4:3Частота кадров : 25,000 кадров/секЦветовое пространство : YUVСубдискретизация насыщенности : 4:2:0Битовая глубина : 8 битТип развёртки : ПрогрессивнаяМетод сжатия : С потерямиБит/(Пиксели*Кадры) : 0.243Размер потока : 365 Мбайт (95%)Библиотека кодирования : XviD 1.0.3 (UTC 2004-12-20)

АудиоИдентификатор : 1Формат : MPEG AudioВерсия формата : Version 2Профиль формата : Layer 3Режим : Joint stereoРасширение режима : Intensity Stereo + MS StereoИдентификатор кодека : 55Идентификатор кодека/Подсказка : MP3Продолжительность : 42 м.Вид битрейта : ПостоянныйБитрейт : 56,0 Кбит/секКаналы : 2 каналаЧастота : 22,05 КГцМетод сжатия : С потерямиРазмер потока : 17,0 Мбайт (4%)Выравнивание : Разделение по промежуткамПродолжительность промежутка : 40 мс. (1,00 видеокадр)Время предзагрузки промежутка : 502 мс.


Трекер:  [ 16-Май-2018 09:36 ]

  

Скачать .torrent

Размер .torrent файла 15 KB


Размер: 385 MB
Хэш (hash) релиза: 600af407c1055cdb018b4372ad1c94faabd0b988
Подписка на обновления:

Еще никто не оставлял запись к записи скачать торрент Дагестан. Начало Второй Чеченской . Будь первым!

!Обратная связь