Télécharger | Episode 06 (Sub) | More new releases tagged historical fiction...

Скачать через торрент [VIDEO] Ясон и Аргонавты Язон и Аргонавты бесплатно русская версия torrent активатор

Статистика раздачи
Размер:  1.46 GB   |    Зарегистрирован:  2 месяца 5 дней   |    .torrent скачан:  19 раз   |   
Раздают:  1  
   
загрузка...
 
Автор Сообщение

Galfimbul

avatar Galfimbul


Ясон и Аргонавты / Язон и Аргонавты / Jason and the Argonauts (2 части)

Год выпуска: 2000
Страна: США
Жанр: приключения, фэнтези, семейный
Продолжительность: 01:25:46 + 01:26:16
Перевод: русский Профессиональный (двухголосый, закадровый)
Субтитры: нет
Режиссер: Ник Уиллинг / Nick Willing
В ролях: Джейсон Лондон, Фрэнк Ланджелла, Наташа Хенстридж, Дерек Якоби, Оливия Уильямс, Энгус МакФадьен, Дэннис Хоппер, Джолин Блэлок, Брайан Томпсон, Адриан Лестер и другие .
Описание: Задумав навсегда избавиться от своего племянника Язона, тиран Пелий приказал ему отправиться в далекую Колхиду и привезти оттуда бесценное Золотое Руно, принадлежащее жестокому и коварному царю Аэрту. Построив самый быстроходный корабль в мире, Язон во главе команды искателей приключений пустился в небывалое путешествие туда, откуда еще никто и никогда не возвращался.Преодолевая многочисленные непроходимые препятствия, сражаясь с ужасными чудовищами и прекрасными, но свирепыми амазонками, Язон и его товарищи упрямо идут к цели. И даже царь богов Зевс не в силах помешать отважным героям…
Релиз группы

Качество: DVDRip / рип с 2хDVD5
Формат: MP4
Видео кодек: H.264
Аудио кодек: AAC
Первая часть

<div class="post-box-default">
<div class="post-box" style="border-color: #000000; background: #E6E6FA;">Видео: 470x360 AR:1.31 1080 kbps 25 fps
Аудио: [Russian] 2ch 48 kHz 128 kbps - [DVO] Профессиональный (двухголосый, закадровый)
</div>
</div>
Вторая часть

<div class="post-box-default">
<div class="post-box" style="border-color: #000000; background: #E6E6FA;">Видео: 468x360 AR:1.3 1080 kbps 25 fps
Аудио: [Russian] 2ch 48 kHz 128 kbps - [DVO] Профессиональный (двухголосый, закадровый)
</div>
</div>
<div class="sp-wrap">
<div class="sp-head folded">Logx264</div>
<div class="sp-body">avs [info]: 470x360p 1:1 @ 25/1 fps (cfr)
x264 [info]: using SAR=1/1
x264 [info]: using cpu capabilities: MMX2 SSE2Fast SSSE3 SSE4.2 AVX FMA3 BMI2 AVX2
x264 [info]: profile High, level 4.1

x264 [info]: frame I:1038 Avg QP:19.21 size: 28076
x264 [info]: frame P:29130 Avg QP:22.26 size: 10511
x264 [info]: frame B:98482 Avg QP:23.80 size: 3650
x264 [info]: consecutive B-frames: 2.0% 2.7% 7.7% 31.6% 18.0% 29.9% 4.9% 1.9% 0.9% 0.4%
x264 [info]: mb I I16..4: 1.6% 77.1% 21.3%
x264 [info]: mb P I16..4: 0.3% 13.8% 2.2% P16..4: 30.1% 34.6% 15.4% 2.3% 0.3% skip: 1.0%
x264 [info]: mb B I16..4: 0.0% 2.0% 0.3% B16..8: 32.3% 22.7% 4.1% direct: 8.4% skip:30.2% L0:38.9% L1:38.7% BI:22.5%
x264 [info]: 8x8 transform intra:83.9% inter:61.6%
x264 [info]: direct mvs spatial:95.7% temporal:4.3%
x264 [info]: coded y,uvDC,uvAC intra: 93.4% 68.1% 26.5% inter: 34.8% 17.7% 3.5%
x264 [info]: i16 v,h,dc,p: 26% 19% 6% 49%
x264 [info]: i8 v,h,dc,ddl,ddr,vr,hd,vl,hu: 14% 12% 5% 9% 12% 12% 13% 11% 13%
x264 [info]: i4 v,h,dc,ddl,ddr,vr,hd,vl,hu: 16% 12% 3% 8% 13% 13% 13% 10% 12%
x264 [info]: i8c dc,h,v,p: 29% 30% 22% 18%
x264 [info]: Weighted P-Frames: Y:14.3% UV:5.6%
x264 [info]: ref P L0: 44.4% 14.4% 18.5% 6.3% 5.7% 3.9% 4.1% 2.4% 0.4% 0.0%
x264 [info]: ref B L0: 79.7% 9.7% 4.6% 2.5% 1.8% 1.2% 0.5%
x264 [info]: ref B L1: 96.4% 3.6%
x264 [info]: kb/s:1080.17

encoded 128650 frames, 29.86 fps, 1080.17 kb/s
GeneralComplete name : D:\Torrents\Yazon i Argonavtu (2 chasti).2000.DVDRip.x264.640x\Yazon i Argonavtu (Pervaya chast).2000.DVDRip.x264.640x.rip by Frost O.S.mp4Format : MPEG-4Format profile : 3GPP Media Release 6 BasicCodec ID : 3gp6 (isom/3gp6/avc1/mp42)File size : 744 MiBDuration : 1 h 25 minOverall bit rate mode : VariableOverall bit rate : 1 212 kb/sEncoded date : UTC 2018-05-15 12:33:40Tagged date : UTC 2018-05-15 12:33:40Writing application : Yamb 2.1.0.0

VideoID : 1Format : AVCFormat/Info : Advanced Video CodecFormat profile : [email protected] settings, CABAC : YesFormat settings, ReFrames : 8 framesCodec ID : avc1Codec ID/Info : Advanced Video CodingDuration : 1 h 25 minBit rate : 1 080 kb/sMaximum bit rate : 3 474 kb/sWidth : 470 pixelsHeight : 360 pixelsDisplay aspect ratio : 4:3Frame rate mode : ConstantFrame rate : 25.000 FPSColor space : YUVChroma subsampling : 4:2:0Bit depth : 8 bitsScan type : ProgressiveBits/(Pixel*Frame) : 0.255Stream size : 663 MiB (89%)Writing library : x264 core 152 r2851 ba24899Encoding settings : cabac=1 / ref=8 / deblock=1:-1:-1 / analyse=0x3:0x133 / me=umh / subme=11 / psy=1 / psy_rd=0.90:0.00 / mixed_ref=1 / me_range=48 / chroma_me=1 / trellis=2 / 8x8dct=1 / cqm=0 / deadzone=21,11 / fast_pskip=0 / chroma_qp_offset=-2 / threads=6 / lookahead_threads=1 / sliced_threads=0 / nr=0 / decimate=0 / interlaced=0 / bluray_compat=0 / constrained_intra=0 / bframes=9 / b_pyramid=2 / b_adapt=2 / b_bias=0 / direct=3 / weightb=1 / open_gop=0 / weightp=2 / keyint=250 / keyint_min=25 / scenecut=40 / intra_refresh=0 / rc=2pass / mbtree=0 / bitrate=1080 / ratetol=1.0 / qcomp=0.70 / qpmin=0 / qpmax=69 / qpstep=4 / cplxblur=20.0 / qblur=0.5 / ip_ratio=1.40 / pb_ratio=1.30 / aq=3:0.90Encoded date : UTC 2018-05-15 10:34:42Tagged date : UTC 2018-05-15 12:33:49Color range : LimitedColor primaries : BT.601 PALTransfer characteristics : BT.470 System B, BT.470 System GMatrix coefficients : BT.601

AudioID : 2Format : AACFormat/Info : Advanced Audio CodecFormat profile : LCCodec ID : 40Duration : 1 h 25 minBit rate mode : VariableBit rate : 128 kb/sMaximum bit rate : 136 kb/sChannel(s) : 2 channelsChannel positions : Front: L RSampling rate : 48.0 kHzFrame rate : 46.875 FPS (1024 spf)Compression mode : LossyStream size : 78.5 MiB (11%)Encoded date : UTC 2018-05-15 10:42:03Tagged date : UTC 2018-05-15 12:33:49
</div>
</div>
<div class="sp-wrap">
<div class="sp-head folded">Logx264</div>
<div class="sp-body">vs [info]: 468x360p 1:1 @ 25/1 fps (cfr)
x264 [info]: using SAR=1/1
x264 [info]: using cpu capabilities: MMX2 SSE2Fast SSSE3 SSE4.2 AVX FMA3 BMI2 AVX2
x264 [info]: profile High, level 4.1

x264 [info]: frame I:1002 Avg QP:19.57 size: 30696
x264 [info]: frame P:29363 Avg QP:22.68 size: 10731
x264 [info]: frame B:99035 Avg QP:24.29 size: 3564
x264 [info]: consecutive B-frames: 2.2% 3.1% 7.7% 28.4% 17.6% 31.6% 5.3% 2.4% 1.0% 0.5% 0.2%
x264 [info]: mb I I16..4: 2.8% 74.1% 23.1%
x264 [info]: mb P I16..4: 0.5% 12.6% 2.8% P16..4: 31.1% 32.9% 15.1% 2.2% 0.3% skip: 2.5%
x264 [info]: mb B I16..4: 0.0% 1.8% 0.5% B16..8: 30.0% 21.2% 3.9% direct: 8.2% skip:34.4% L0:37.3% L1:38.0% BI:24.7%
x264 [info]: 8x8 transform intra:77.8% inter:60.5%
x264 [info]: direct mvs spatial:96.3% temporal:3.7%
x264 [info]: coded y,uvDC,uvAC intra: 89.7% 77.2% 34.4% inter: 33.0% 17.6% 3.8%
x264 [info]: i16 v,h,dc,p: 32% 20% 7% 41%
x264 [info]: i8 v,h,dc,ddl,ddr,vr,hd,vl,hu: 13% 12% 6% 9% 12% 12% 12% 11% 13%
x264 [info]: i4 v,h,dc,ddl,ddr,vr,hd,vl,hu: 13% 27% 4% 6% 11% 10% 10% 8% 10%
x264 [info]: i8c dc,h,v,p: 30% 27% 22% 21%
x264 [info]: Weighted P-Frames: Y:12.6% UV:5.6%
x264 [info]: ref P L0: 44.3% 14.6% 18.3% 5.7% 5.3% 3.5% 3.7% 2.0% 2.4% 0.4% 0.0%
x264 [info]: ref B L0: 81.2% 8.9% 3.9% 2.1% 1.5% 1.3% 0.8% 0.3%
x264 [info]: ref B L1: 96.7% 3.3%
x264 [info]: kb/s:1080.10

encoded 129400 frames, 29.00 fps, 1080.11 kb/s
GeneralComplete name : D:\Torrents\Yazon i Argonavtu (2 chasti).2000.DVDRip.x264.640x\Yazon i Argonavtu (Vtoraya chast).2000.DVDRip.x264.640x.rip by Frost O.S.mp4Format : MPEG-4Format profile : 3GPP Media Release 6 BasicCodec ID : 3gp6 (isom/3gp6/avc1/mp42)File size : 748 MiBDuration : 1 h 26 minOverall bit rate mode : VariableOverall bit rate : 1 212 kb/sEncoded date : UTC 2018-05-15 12:34:44Tagged date : UTC 2018-05-15 12:34:44Writing application : Yamb 2.1.0.0

VideoID : 1Format : AVCFormat/Info : Advanced Video CodecFormat profile : [email protected] settings, CABAC : YesFormat settings, ReFrames : 9 framesCodec ID : avc1Codec ID/Info : Advanced Video CodingDuration : 1 h 26 minBit rate : 1 080 kb/sMaximum bit rate : 4 086 kb/sWidth : 468 pixelsHeight : 360 pixelsDisplay aspect ratio : 4:3Frame rate mode : ConstantFrame rate : 25.000 FPSColor space : YUVChroma subsampling : 4:2:0Bit depth : 8 bitsScan type : ProgressiveBits/(Pixel*Frame) : 0.256Stream size : 666 MiB (89%)Writing library : x264 core 152 r2851 ba24899Encoding settings : cabac=1 / ref=9 / deblock=1:-1:-1 / analyse=0x3:0x133 / me=umh / subme=11 / psy=1 / psy_rd=0.85:0.00 / mixed_ref=1 / me_range=48 / chroma_me=1 / trellis=2 / 8x8dct=1 / cqm=0 / deadzone=21,11 / fast_pskip=0 / chroma_qp_offset=-2 / threads=6 / lookahead_threads=1 / sliced_threads=0 / nr=0 / decimate=0 / interlaced=0 / bluray_compat=0 / constrained_intra=0 / bframes=10 / b_pyramid=2 / b_adapt=2 / b_bias=0 / direct=3 / weightb=1 / open_gop=0 / weightp=2 / keyint=250 / keyint_min=25 / scenecut=40 / intra_refresh=0 / rc=2pass / mbtree=0 / bitrate=1080 / ratetol=1.0 / qcomp=0.70 / qpmin=0 / qpmax=69 / qpstep=4 / cplxblur=20.0 / qblur=0.5 / ip_ratio=1.40 / pb_ratio=1.30 / aq=2:0.95Encoded date : UTC 2018-05-15 12:20:39Tagged date : UTC 2018-05-15 12:34:46Color range : LimitedColor primaries : BT.601 PALTransfer characteristics : BT.470 System B, BT.470 System GMatrix coefficients : BT.601

AudioID : 2Format : AACFormat/Info : Advanced Audio CodecFormat profile : LCCodec ID : 40Duration : 1 h 26 minBit rate mode : VariableBit rate : 128 kb/sMaximum bit rate : 138 kb/sChannel(s) : 2 channelsChannel positions : Front: L RSampling rate : 48.0 kHzFrame rate : 46.875 FPS (1024 spf)Compression mode : LossyStream size : 79.0 MiB (11%)Encoded date : UTC 2018-05-15 12:27:30Tagged date : UTC 2018-05-15 12:34:46
</div>
</div>

Трекер:  [ 15-Май-2018 16:06 ]

  

Скачать .torrent

Размер .torrent файла 15 KB


Размер: 1.46 GB
Хэш (hash) релиза: 05d25b55f62faeffd248f4df1b8769c9c39c55aa

Еще никто не оставлял запись к записи скачать торрент [VIDEO] Ясон и Аргонавты Язон и Аргонавты . Будь первым!

!Обратная связь