Batman Beyond: Return of the Joker (2000) | Irumbu Thirai (2018) | Freddie Prinze Jr.

Скачать через торрент Переверни страницу Фильм бесплатно в хорошем качестве torrent

Скачивайте на UnionPeer.org фильмы через торрент без регистрации. Новинки кино в хорошем качестве через торрент. На UnionPeer.org можно скачать через торрент фильмы 2014 и 2015 годов. Самые новые фильмы.

Скачать торрент Переверни страницу бесплатно через .torrent фильм мультфильм сериал

Статистика раздачи
Размер:  745 MB   |    Зарегистрирован:  1 месяц 10 дней   |    .torrent скачан:  53 раза   |   
Раздают:  1  
   
загрузка...
 
Автор Сообщение

Galfimbul

avatar Galfimbul


Переверни страницу

Жанр: мелодрама
Год выпуска: 2017
Продолжительность: 01:31:04

Режиссёр: Андрей Селиванов

В ролях: Анна Здор
Анастасия Шаповал
Павел Новиков
Полина Пилипченко
Ирина Туманцева
Сергей Ланбамин
Сергей Тишин
Игорь Литовкин
Вадим Руденко
Ксения Мон Сор

Описание: Наташа — красивая молодая женщина, преподаватель в музыкальной школе. Она счастливо замужем и растит дочь.

Однажды вечером Наташа возвращается с корпоратива и бесследно пропадает. Поиски не дают результатов, и семья в конце концов смиряется с трагедией. Но три года спустя приходят шокирующие вести о Наташе…

Доп. информация: http://www.kinopoisk.ru/film/pereverni-stranitsu-2017-1118087/

Сэмпл: http://sendfile.su/1419274

Качество видео: WEB-DLRip Найден в сети
Формат видео: AVI

Видео: 688x384 (1.79:1), 25 fps, XviD build 73 ~1005 kbps avg, 0.15 bit/pixel
Аудио: 48 kHz, MPEG Layer 3, 2 ch, ~128.00 kbps avg
GeneralComplete name : C:\Pereverni.Stranitsu.2017.WEB-DLRip.ot.Portablius.aviFormat : AVIFormat/Info : Audio Video InterleaveFile size : 745 MiBDuration : 1h 31mnOverall bit rate : 1 144 KbpsWriting application : VirtualDubMod 1.5.10.3 | www.virtualdub-fr.org || (build 2550/release)Writing library : VirtualDubMod build 2550/release

VideoID : 0Format : MPEG-4 VisualFormat profile : Advanced [email protected] settings, BVOP : 1Format settings, QPel : NoFormat settings, GMC : No warppointsFormat settings, Matrix : CustomCodec ID : XVIDCodec ID/Hint : XviDDuration : 1h 31mnBit rate : 1 006 KbpsWidth : 688 pixelsHeight : 384 pixelsDisplay aspect ratio : 16:9Frame rate : 25.000 fpsColor space : YUVChroma subsampling : 4:2:0Bit depth : 8 bitsScan type : ProgressiveCompression mode : LossyBits/(Pixel*Frame) : 0.152Stream size : 655 MiB (88%)Writing library : XviD 73

AudioID : 1Format : MPEG AudioFormat version : Version 1Format profile : Layer 3Codec ID : 55Codec ID/Hint : MP3Duration : 1h 31mnBit rate mode : ConstantBit rate : 128 KbpsChannel(s) : 2 channelsSampling rate : 48.0 KHzCompression mode : LossyStream size : 83.4 MiB (11%)Alignment : Aligned on interleavesInterleave, duration : 40 ms (1.00 video frame)Interleave, preload duration : 504 msWriting library : LAME3.99rEncoding settings : -m s -V 4 -q 2 -lowpass 17 -b 128


Трекер:  [ 14-Май-2018 22:24 ]

  

Скачать .torrent

Размер .torrent файла 15 KB


Размер: 745 MB
Хэш (hash) релиза: a51f6e534c1b484962b0d030c28ad18fa1455832
Подписка на обновления:

Торренты, похожие на Переверни страницу скачать торрент

Форум Название Автор Размер S L Добавлен
Российские фильмы 2016-2018 (Новинки русского кино) ·· Переверни страницу (Андрей Селиванов) [2017, Мелодрама, WEB-DL 720p] Galfimbul 13591499831.27 GB 0 0 1526133099

16:51

12-Май-18

Еще никто не оставлял запись к записи скачать торрент Переверни страницу . Будь первым!

!Обратная связь