Thief of Thieves - Season One [FitGirl Repack] | Hollywood Hillbillies | Гандбол. Чемпионат Европы...

Скачать через торрент [VIDEO] Американский дедушка бесплатно русская версия torrent активатор

Статистика раздачи
Размер:  636 MB   |    Зарегистрирован:  2 месяца 7 дней   |    .torrent скачан:  23 раза   |   
Раздают:  1  
   
загрузка...
 
Автор Сообщение

Galfimbul

avatar Galfimbul


Американский дедушка

Год выпуска: 1994
Страна: Россия
Жанр: комедия
Продолжительность: 01:13:20
Перевод: не требуется
Субтитры: нет
Режиссер: Иван Щёголев
В ролях: Евгений Леонов, Александр Баширов, Майя Булгакова, Валерий Носик, Владимир Носик, Галина Польских, Вячеслав Шалевич и другие .
Описание: Некая Костылева, которую уволили (сократили) с работы грозится покончить жизнь самоубийством. Коллега предлагает сократить его. Самопожертвование было неправильно понято женой этого сотрудника. Из чувства ревности она решает бросить мужа и уйти из дома.

А тот неожиданно узнает, что из Америки приезжает погостить дедушка, которого (а вдруг он миллионер!) надо встретить, как следует — не каждый день из США родственники приезжают! Дедушка приезжает на допотопном авто, чтобы «весело умереть» на родине, в России.

Гроб и место на кладбище купили, а со смертью возникли проблемы. Оказалось, что жизнь только начинается. Зря только дед все деньги отдал на санатории для бездомных собак…
Доп. информация: Последняя роль в кино Евгения Леонова .
Релиз группы

Качество: DVDRip / рип с DVD5
Формат: MP4
Видео кодек: H.264
Аудио кодек: AAC
Видео: 480x360 AR:1.33 1080 kbps 25 fps
Аудио №1: 2ch 48 kHz 128 kbps
avs [info]: 480x360p 1:1 @ 25/1 fps (cfr)
x264 [info]: using SAR=1/1
x264 [info]: using cpu capabilities: MMX2 SSE2Fast SSSE3 SSE4.2 AVX FMA3 BMI2 AVX2
x264 [info]: profile High, level 4.1

x264 [info]: frame I:606 Avg QP:15.87 size: 23819
x264 [info]: frame P:25789 Avg QP:18.50 size: 10581
x264 [info]: frame B:83605 Avg QP:20.86 size: 3667
x264 [info]: consecutive B-frames: 1.5% 1.6% 8.7% 41.4% 21.0% 23.0% 2.2% 0.6%
x264 [info]: mb I I16..4: 0.3% 84.4% 15.3%
x264 [info]: mb P I16..4: 0.0% 13.8% 1.4% P16..4: 29.0% 36.5% 15.8% 2.3% 0.2% skip: 1.0%
x264 [info]: mb B I16..4: 0.0% 1.8% 0.2% B16..8: 32.7% 22.5% 4.4% direct:10.7% skip:27.8% L0:36.5% L1:40.9% BI:22.6%
x264 [info]: 8x8 transform intra:90.3% inter:57.8%
x264 [info]: direct mvs spatial:97.8% temporal:2.2%
x264 [info]: coded y,uvDC,uvAC intra: 98.1% 76.6% 30.0% inter: 42.6% 20.7% 2.6%
x264 [info]: i16 v,h,dc,p: 14% 14% 1% 72%
x264 [info]: i8 v,h,dc,ddl,ddr,vr,hd,vl,hu: 19% 6% 6% 9% 12% 14% 10% 13% 12%
x264 [info]: i4 v,h,dc,ddl,ddr,vr,hd,vl,hu: 21% 5% 2% 8% 14% 16% 12% 12% 10%
x264 [info]: i8c dc,h,v,p: 29% 26% 25% 21%
x264 [info]: Weighted P-Frames: Y:32.9% UV:7.7%
x264 [info]: ref P L0: 46.9% 14.7% 16.4% 7.0% 5.1% 3.7% 3.3% 2.1% 0.7% 0.0%
x264 [info]: ref B L0: 88.5% 6.3% 2.3% 1.3% 0.8% 0.5% 0.3%
x264 [info]: ref B L1: 98.2% 1.8%
x264 [info]: kb/s:1079.80

encoded 110000 frames, 29.72 fps, 1079.80 kb/s
GeneralComplete name : D:\Torrents\Amerikanskii dedushka.1994.DVDRip.x264.640x.rip by Frost O.S.mp4Format : MPEG-4Format profile : 3GPP Media Release 6 BasicCodec ID : 3gp6 (isom/3gp6/avc1/mp42)File size : 636 MiBDuration : 1 h 13 minOverall bit rate mode : VariableOverall bit rate : 1 212 kb/sEncoded date : UTC 2018-05-14 16:22:40Tagged date : UTC 2018-05-14 16:22:40Writing application : Yamb 2.1.0.0

VideoID : 1Format : AVCFormat/Info : Advanced Video CodecFormat profile : [email protected] settings, CABAC : YesFormat settings, ReFrames : 8 framesCodec ID : avc1Codec ID/Info : Advanced Video CodingDuration : 1 h 13 minBit rate : 1 080 kb/sMaximum bit rate : 2 197 kb/sWidth : 480 pixelsHeight : 360 pixelsDisplay aspect ratio : 4:3Frame rate mode : ConstantFrame rate : 25.000 FPSColor space : YUVChroma subsampling : 4:2:0Bit depth : 8 bitsScan type : ProgressiveBits/(Pixel*Frame) : 0.250Stream size : 566 MiB (89%)Writing library : x264 core 152 r2851 ba24899Encoding settings : cabac=1 / ref=8 / deblock=1:-1:-1 / analyse=0x3:0x133 / me=umh / subme=11 / psy=1 / psy_rd=1.00:0.00 / mixed_ref=1 / me_range=48 / chroma_me=1 / trellis=2 / 8x8dct=1 / cqm=0 / deadzone=21,11 / fast_pskip=0 / chroma_qp_offset=-2 / threads=6 / lookahead_threads=1 / sliced_threads=0 / nr=0 / decimate=0 / interlaced=0 / bluray_compat=0 / constrained_intra=0 / bframes=7 / b_pyramid=2 / b_adapt=2 / b_bias=0 / direct=3 / weightb=1 / open_gop=0 / weightp=2 / keyint=250 / keyint_min=25 / scenecut=40 / intra_refresh=0 / rc=2pass / mbtree=0 / bitrate=1080 / ratetol=1.0 / qcomp=0.70 / qpmin=0 / qpmax=69 / qpstep=4 / cplxblur=20.0 / qblur=0.5 / ip_ratio=1.40 / pb_ratio=1.30 / aq=3:1.00Encoded date : UTC 2018-05-14 16:06:49Tagged date : UTC 2018-05-14 16:22:42Color range : LimitedColor primaries : BT.601 PALTransfer characteristics : BT.470 System B, BT.470 System GMatrix coefficients : BT.601

AudioID : 2Format : AACFormat/Info : Advanced Audio CodecFormat profile : LCCodec ID : 40Duration : 1 h 13 minBit rate mode : VariableBit rate : 128 kb/sMaximum bit rate : 133 kb/sChannel(s) : 2 channelsChannel positions : Front: L RSampling rate : 48.0 kHzFrame rate : 46.875 FPS (1024 spf)Compression mode : LossyStream size : 67.1 MiB (11%)Encoded date : UTC 2018-05-14 16:12:18Tagged date : UTC 2018-05-14 16:22:42


Трекер:  [ 14-Май-2018 19:36 ]

  

Скачать .torrent

Размер .torrent файла 13 KB


Размер: 636 MB
Хэш (hash) релиза: 54d5560d2e041831a4e5e33488e9bad04c54febe

Еще никто не оставлял запись к записи скачать торрент [VIDEO] Американский дедушка . Будь первым!

!Обратная связь