Dead or Alive 5 (Xbox 360) | Thriller | Charlotte

Скачать через торрент Рождество сестёр Март Рождество сестёр Марч бесплатно torrent (книга, аудиокнига, журнал, комикс

Статистика раздачи
Размер:  1.4 GB   |    Зарегистрирован:  3 месяца 4 дня   |    .torrent скачан:  29 раз   |   
Раздают:  1  
   
загрузка...
 
Автор Сообщение

Galfimbul

avatar Galfimbul


Рождество сестёр Март
The March Sisters at Christmas
Страна: США
Жанр: комедия
Продолжительность: 01:28:33
Год выпуска: 2012
Перевод: Профессиональный (двухголосый закадровый)
Субтитры: отсутствуют
Режиссёр: Джон Стимпсон: John Stimpson
В ролях: Джули Берман, Кэйтлин Даблдэй, Мелисса Фарман, Молли Кунц, Джастин Бруенинг, Чарли Хофхаймер, Марк Фамиглетти, Джон Ши, Паула Плам, Роберт Уолш.
О фильме: Чтобы уберечь семейный дом от продажи, сёстры Март занимаются домашним благоустройством.
Семпл: http://www.sendspace.com/file/q8ofvg
Качество: DVB [ASTANA TV] (эфир 12.05.2018)
Формат: TS
Видео: AVC, 720x576 (16:9) @ 1047x576, 25 fps, ~1960 kbps, 0.189 bit/pixel
Аудио: [RUS] 48 kHz, MP2, 2 ch, 192 kbps
ОбщееИдентификатор : 1 (0x1)Полное имя : F:\Рождество сестёр Март (2012) [DVB].tsФормат : MPEG-TSРазмер файла : 1,40 ГбайтПродолжительность : 1 ч. 28 м.Режим общего битрейта : ПеременныйОбщий поток : 2266 Кбит/сек

ВидеоИдентификатор : 67 (0x43)Идентификатор меню : 1 (0x1)Формат : AVCФормат/Информация : Advanced Video CodecПрофиль формата : [email protected]Параметр CABAC формата : ДаПараметр RefFrames формата : 3 кадраИдентификатор кодека : 27Продолжительность : 1 ч. 28 м.Битрейт : 1960 Кбит/секШирина : 720 пикселейВысота : 576 пикселейСоотношение сторон : 16:9Частота кадров : 25,000 кадров/секСтандарт вещания : ComponentЦветовое пространство : YUVСубдискретизация насыщенности : 4:2:0Битовая глубина : 8 битТип развёртки : ЧересстрочнаяМетод сохранения типа развёртки : Раздельные поляПорядок развёртки : Верхнее поле первоеБит/(Пиксели*Кадры) : 0.189Размер потока : 1,21 Гбайт (86%)Цветовой диапазон : LimitedОсновные цвета : BT.601 PALХарактеристики трансфера : BT.470 System B, BT.470 System GКоэффициенты матрицы : BT.470 System B, BT.470 System G

АудиоИдентификатор : 68 (0x44)Идентификатор меню : 1 (0x1)Формат : MPEG AudioВерсия формата : Version 1Профиль формата : Layer 2Идентификатор кодека : 3Продолжительность : 1 ч. 28 м.Вид битрейта : ПостоянныйБитрейт : 192 Кбит/секКаналы : 2 каналаЧастота : 48,0 КГцМетод сжатия : С потерямиЗадержка видео : -120 мс.Размер потока : 122 Мбайт (8%)Язык : English


Трекер:  [ 14-Май-2018 13:30 ]

  

Скачать .torrent

Размер .torrent файла 14 KB


Размер: 1.4 GB
Хэш (hash) релиза: 470d9fe3e7da645769cee49f04bd06559d165de2
Подписка на обновления:

Еще никто не оставлял запись к записи скачать торрент Рождество сестёр Март Рождество сестёр Марч . Будь первым!

!Обратная связь