Un pliegue en el tiempo BluRay MicroHD | Criminal Minds: Team Red | Mary and the Witch's Flower

Скачать через торрент [VIDEO] Двенадцать месяцев бесплатно русская версия torrent активатор

Статистика раздачи
Размер:  1.17 GB   |    Зарегистрирован:  2 месяца 9 дней   |    .torrent скачан:  9 раз   |   
Раздают:  1  
   
загрузка...
 
Автор Сообщение

Galfimbul

avatar Galfimbul


Двенадцать месяцев (2 серии)

Год выпуска: 1973
Страна: СССР
Жанр: сказка
Продолжительность: (01:03:15 + 01:15:31)
Перевод: не требуется
Субтитры: нет
Режиссер: Анатолий Граник
В ролях: Наталья Попова, Лиана Жвания, Николай Волков, Ольга Викланд, Марина Мальцева, Татьяна Пельтцер, Константин Адашевский, Леонид Куравлев, Александр Соколов, Георгий Тейх и другие .
Описание: По театральной сказке Самуила Маршака. Под вечер, в канун Нового года злая мачеха отправила свою падчерицу в лес за подснежниками. Это история о том, как жадность одной девочки и каприз другой едва не обрекли на гибель третью, добрую и беззащитную. Такую же, как и подснежники, которые она все-таки нашла в новогоднем лесу .
Релиз группы

Качество: DVDRip / рип с DVD9
Формат: MP4
Видео кодек: H.264
Аудио кодек: AAC
Первая серия

<div class="post-box-default">
<div class="post-box" style="border-color: #000000; background: #E6E6FA;">Видео: 484x360 AR:1.34 1080 kbps 25 fps
Аудио: 2ch 48 kHz 128 kbps
</div>
</div>
Вторая серия

<div class="post-box-default">
<div class="post-box" style="border-color: #000000; background: #E6E6FA;">Видео: 484x360 AR:1.34 1080 kbps 25 fps
Аудио: 2ch 48 kHz 128 kbps
</div>
</div>
<div class="sp-wrap">
<div class="sp-head folded">Logx264</div>
<div class="sp-body">avs [info]: 484x360p 1:1 @ 25/1 fps (cfr)
x264 [info]: using SAR=1/1
x264 [info]: using cpu capabilities: MMX2 SSE2Fast SSSE3 SSE4.2 AVX FMA3 BMI2 AVX2
x264 [info]: profile High, level 4.1

x264 [info]: frame I:435 Avg QP:18.40 size: 28453
x264 [info]: frame P:19557 Avg QP:21.38 size: 10643
x264 [info]: frame B:74895 Avg QP:23.66 size: 3899
x264 [info]: consecutive B-frames: 0.9% 1.7% 7.1% 22.2% 14.9% 42.1% 5.8% 2.6% 1.9% 0.9%
x264 [info]: mb I I16..4: 0.5% 77.2% 22.3%
x264 [info]: mb P I16..4: 0.1% 7.9% 1.6% P16..4: 32.3% 37.9% 17.0% 2.5% 0.2% skip: 0.5%
x264 [info]: mb B I16..4: 0.0% 1.0% 0.2% B16..8: 34.4% 25.3% 4.7% direct: 9.8% skip:24.4% L0:39.7% L1:37.4% BI:22.9%
x264 [info]: 8x8 transform intra:80.3% inter:61.1%
x264 [info]: direct mvs spatial:97.8% temporal:2.2%
x264 [info]: coded y,uvDC,uvAC intra: 90.2% 81.8% 51.0% inter: 39.5% 26.0% 6.2%
x264 [info]: i16 v,h,dc,p: 24% 34% 7% 35%
x264 [info]: i8 v,h,dc,ddl,ddr,vr,hd,vl,hu: 16% 11% 6% 8% 12% 12% 11% 12% 12%
x264 [info]: i4 v,h,dc,ddl,ddr,vr,hd,vl,hu: 12% 23% 4% 7% 12% 12% 11% 9% 11%
x264 [info]: i8c dc,h,v,p: 36% 25% 24% 16%
x264 [info]: Weighted P-Frames: Y:51.5% UV:27.4%
x264 [info]: ref P L0: 42.5% 14.3% 14.6% 8.1% 5.6% 4.8% 3.7% 2.5% 2.4% 1.5% 0.0%
x264 [info]: ref B L0: 76.0% 10.3% 5.2% 3.0% 2.1% 1.9% 1.1% 0.4%
x264 [info]: ref B L1: 95.3% 4.7%
x264 [info]: kb/s:1080.23

encoded 94887 frames, 27.51 fps, 1080.23 kb/s
GeneralComplete name : D:\Torrents\Dvenadcat mecyacev (2 serii).1973.DVDRip.x264.640x\Dvenadcat mecyacev (Pervaya chast).1973.DVDRip.x264.640x.rip by Frost O.S.mp4Format : MPEG-4Format profile : 3GPP Media Release 6 BasicCodec ID : 3gp6 (isom/3gp6/avc1/mp42)File size : 548 MiBDuration : 1 h 3 minOverall bit rate mode : VariableOverall bit rate : 1 212 kb/sEncoded date : UTC 2018-05-14 09:06:00Tagged date : UTC 2018-05-14 09:06:00Writing application : Yamb 2.1.0.0

VideoID : 1Format : AVCFormat/Info : Advanced Video CodecFormat profile : [email protected] settings, CABAC : YesFormat settings, ReFrames : 9 framesCodec ID : avc1Codec ID/Info : Advanced Video CodingDuration : 1 h 3 minBit rate : 1 080 kb/sMaximum bit rate : 3 195 kb/sWidth : 484 pixelsHeight : 360 pixelsDisplay aspect ratio : 4:3Frame rate mode : ConstantFrame rate : 25.000 FPSColor space : YUVChroma subsampling : 4:2:0Bit depth : 8 bitsScan type : ProgressiveBits/(Pixel*Frame) : 0.248Stream size : 489 MiB (89%)Writing library : x264 core 152 r2851 ba24899Encoding settings : cabac=1 / ref=9 / deblock=1:-1:-1 / analyse=0x3:0x133 / me=umh / subme=11 / psy=1 / psy_rd=0.90:0.00 / mixed_ref=1 / me_range=48 / chroma_me=1 / trellis=2 / 8x8dct=1 / cqm=0 / deadzone=21,11 / fast_pskip=0 / chroma_qp_offset=-2 / threads=6 / lookahead_threads=1 / sliced_threads=0 / nr=0 / decimate=0 / interlaced=0 / bluray_compat=0 / constrained_intra=0 / bframes=9 / b_pyramid=2 / b_adapt=2 / b_bias=0 / direct=3 / weightb=1 / open_gop=0 / weightp=2 / keyint=250 / keyint_min=25 / scenecut=40 / intra_refresh=0 / rc=2pass / mbtree=0 / bitrate=1080 / ratetol=1.0 / qcomp=0.65 / qpmin=0 / qpmax=69 / qpstep=4 / cplxblur=20.0 / qblur=0.5 / ip_ratio=1.40 / pb_ratio=1.30 / aq=1:0.90Encoded date : UTC 2018-05-14 07:24:56Tagged date : UTC 2018-05-14 09:06:07Color range : LimitedColor primaries : BT.601 PALTransfer characteristics : BT.470 System B, BT.470 System GMatrix coefficients : BT.601

AudioID : 2Format : AACFormat/Info : Advanced Audio CodecFormat profile : LCCodec ID : 40Duration : 1 h 3 minBit rate mode : VariableBit rate : 128 kb/sMaximum bit rate : 133 kb/sChannel(s) : 2 channelsChannel positions : Front: L RSampling rate : 48.0 kHzFrame rate : 46.875 FPS (1024 spf)Compression mode : LossyStream size : 57.9 MiB (11%)Encoded date : UTC 2018-05-14 09:02:16Tagged date : UTC 2018-05-14 09:06:07
</div>
</div>
<div class="sp-wrap">
<div class="sp-head folded">Logx264</div>
<div class="sp-body">avs [info]: 484x360p 1:1 @ 25/1 fps (cfr)
x264 [info]: using SAR=1/1
x264 [info]: using cpu capabilities: MMX2 SSE2Fast SSSE3 SSE4.2 AVX FMA3 BMI2 AVX2
x264 [info]: profile High, level 4.1

x264 [info]: frame I:528 Avg QP:20.73 size: 28065
x264 [info]: frame P:23896 Avg QP:23.89 size: 10610
x264 [info]: frame B:88874 Avg QP:26.07 size: 3865
x264 [info]: consecutive B-frames: 0.9% 1.8% 7.3% 24.5% 15.0% 43.6% 4.9% 2.0%
x264 [info]: mb I I16..4: 0.6% 76.4% 23.0%
x264 [info]: mb P I16..4: 0.2% 8.4% 1.9% P16..4: 33.2% 36.9% 16.4% 2.4% 0.3% skip: 0.5%
x264 [info]: mb B I16..4: 0.0% 1.0% 0.3% B16..8: 35.3% 25.7% 4.9% direct: 9.5% skip:23.3% L0:38.9% L1:37.7% BI:23.4%
x264 [info]: 8x8 transform intra:79.3% inter:62.3%
x264 [info]: direct mvs spatial:97.5% temporal:2.5%
x264 [info]: coded y,uvDC,uvAC intra: 90.0% 83.1% 49.8% inter: 39.6% 25.3% 5.8%
x264 [info]: i16 v,h,dc,p: 25% 25% 8% 41%
x264 [info]: i8 v,h,dc,ddl,ddr,vr,hd,vl,hu: 17% 10% 5% 8% 12% 13% 11% 13% 11%
x264 [info]: i4 v,h,dc,ddl,ddr,vr,hd,vl,hu: 13% 23% 4% 7% 11% 12% 10% 10% 10%
x264 [info]: i8c dc,h,v,p: 34% 23% 25% 17%
x264 [info]: Weighted P-Frames: Y:57.1% UV:34.7%
x264 [info]: ref P L0: 42.9% 15.3% 14.2% 8.2% 5.3% 4.5% 3.4% 2.4% 2.2% 1.6% 0.0%
x264 [info]: ref B L0: 77.8% 9.8% 4.8% 2.7% 1.9% 1.6% 0.9% 0.4%
x264 [info]: ref B L1: 95.7% 4.3%
x264 [info]: kb/s:1080.05

encoded 113298 frames, 27.27 fps, 1080.05 kb/s
GeneralComplete name : D:\Torrents\Dvenadcat mecyacev (2 serii).1973.DVDRip.x264.640x\Dvenadcat mecyacev (Vtoraya chact).1973.DVDRip.x264.640x.rip by Frost O.S.mp4Format : MPEG-4Format profile : 3GPP Media Release 6 BasicCodec ID : 3gp6 (isom/3gp6/avc1/mp42)File size : 655 MiBDuration : 1 h 15 minOverall bit rate mode : VariableOverall bit rate : 1 212 kb/sEncoded date : UTC 2018-05-14 09:06:36Tagged date : UTC 2018-05-14 09:06:36

VideoID : 1Format : AVCFormat/Info : Advanced Video CodecFormat profile : [email protected] settings, CABAC : YesFormat settings, ReFrames : 9 framesCodec ID : avc1Codec ID/Info : Advanced Video CodingDuration : 1 h 15 minBit rate : 1 080 kb/sMaximum bit rate : 2 408 kb/sWidth : 484 pixelsHeight : 360 pixelsDisplay aspect ratio : 4:3Frame rate mode : ConstantFrame rate : 25.000 FPSColor space : YUVChroma subsampling : 4:2:0Bit depth : 8 bitsScan type : ProgressiveBits/(Pixel*Frame) : 0.248Stream size : 583 MiB (89%)Writing library : x264 core 152 r2851 ba24899Encoding settings : cabac=1 / ref=9 / deblock=1:-1:-1 / analyse=0x3:0x133 / me=umh / subme=11 / psy=1 / psy_rd=0.85:0.00 / mixed_ref=1 / me_range=48 / chroma_me=1 / trellis=2 / 8x8dct=1 / cqm=0 / deadzone=21,11 / fast_pskip=0 / chroma_qp_offset=-2 / threads=6 / lookahead_threads=1 / sliced_threads=0 / nr=0 / decimate=0 / interlaced=0 / bluray_compat=0 / constrained_intra=0 / bframes=7 / b_pyramid=2 / b_adapt=2 / b_bias=0 / direct=3 / weightb=1 / open_gop=0 / weightp=2 / keyint=250 / keyint_min=25 / scenecut=40 / intra_refresh=0 / rc=2pass / mbtree=0 / bitrate=1080 / ratetol=1.0 / qcomp=0.65 / qpmin=0 / qpmax=69 / qpstep=4 / cplxblur=20.0 / qblur=0.5 / ip_ratio=1.40 / pb_ratio=1.30 / aq=1:0.90Encoded date : UTC 2018-05-14 08:53:53Tagged date : UTC 2018-05-14 09:06:38Color range : LimitedColor primaries : BT.601 PALTransfer characteristics : BT.470 System B, BT.470 System GMatrix coefficients : BT.601

AudioID : 2Format : AACFormat/Info : Advanced Audio CodecFormat profile : LCCodec ID : 40Duration : 1 h 15 minBit rate mode : VariableBit rate : 128 kb/sMaximum bit rate : 134 kb/sChannel(s) : 2 channelsChannel positions : Front: L RSampling rate : 48.0 kHzFrame rate : 46.875 FPS (1024 spf)Compression mode : LossyStream size : 69.2 MiB (11%)Encoded date : UTC 2018-05-14 09:00:05Tagged date : UTC 2018-05-14 09:06:38
</div>
</div>

Трекер:  [ 14-Май-2018 12:36 ]

  

Скачать .torrent

Размер .torrent файла 12 KB


Размер: 1.17 GB
Хэш (hash) релиза: 91b7bf0bf930187da3daabc0e30bae79d0cfdd08

Еще никто не оставлял запись к записи скачать торрент [VIDEO] Двенадцать месяцев . Будь первым!

!Обратная связь