kula saen suay, | Ansel Elgort | Rung_E_Hina

Скачать через торрент [MULT] В некотором царстве... бесплатно русская версия torrent активатор

Статистика раздачи
Размер:  246 MB   |    Зарегистрирован:  2 месяца 9 дней   |    .torrent скачан:  33 раза   |   
Раздают:  1  
   
загрузка...
 
Автор Сообщение

Galfimbul

avatar Galfimbul


В некотором царстве...

Год выпуска: 1957
Страна: СССР
Жанр: мультфильм
Продолжительность: 00:28:24
Перевод: не требуется
Субтитры: нет
Режиссеры: Иван Иванов-Вано, Михаил Ботов
Роли озвучивали: Серафим Аникеев, Георгий Вицин, Вера Орлова, Лев Потемкин, Мария Бабанова и другие .
Описание: Старинная сказка про царя Гороха, царевну Марью, заморского принца и про Емелю и чудесную щуку.
Однажды Емеля поймал щуку волшебную, и за то что он отпустил его, щука пообещала выполнять все его желания. И дальше все пошло у Емели как по маслу. Он и царевну в себя влюбил, и войско вражеское победил. И как только в русских сказках бывает, вышла замуж царевна за ленивого дурака, и было им счастье :)))
Релиз группы

Качество: DVDRip / рип с DVD5 Крупный план, без реставрации
Формат: MP4
Видео кодек: H.264
Аудио кодек: AAC
Видео: 482x360 AR:1.34 1080 kbps 25 fps
Аудио: 2ch 48 kHz 128 kbps
avs [info]: 482x360p 1:1 @ 25/1 fps (cfr)
x264 [info]: using SAR=1/1
x264 [info]: using cpu capabilities: MMX2 SSE2Fast SSSE3 SSE4.2 AVX FMA3 BMI2 AVX2
x264 [info]: profile High, level 4.1

x264 [info]: frame I:281 Avg QP:21.68 size: 27772
x264 [info]: frame P:10589 Avg QP:24.90 size: 9502
x264 [info]: frame B:31731 Avg QP:26.44 size: 3832
x264 [info]: consecutive B-frames: 2.2% 3.4% 11.3% 42.1% 20.0% 14.6% 4.0% 1.8% 0.5%
x264 [info]: mb I I16..4: 2.1% 63.5% 34.5%
x264 [info]: mb P I16..4: 0.3% 9.9% 2.1% P16..4: 34.6% 34.8% 13.0% 2.3% 0.2% skip: 2.9%
x264 [info]: mb B I16..4: 0.1% 1.7% 0.3% B16..8: 34.5% 17.6% 4.3% direct: 7.7% skip:33.9% L0:47.0% L1:43.5% BI: 9.5%
x264 [info]: 8x8 transform intra:78.4% inter:56.8%
x264 [info]: direct mvs spatial:96.3% temporal:3.7%
x264 [info]: coded y,uvDC,uvAC intra: 92.6% 75.5% 38.7% inter: 31.3% 24.6% 4.2%
x264 [info]: i16 v,h,dc,p: 37% 32% 8% 24%
x264 [info]: i8 v,h,dc,ddl,ddr,vr,hd,vl,hu: 8% 8% 11% 11% 14% 12% 13% 10% 12%
x264 [info]: i4 v,h,dc,ddl,ddr,vr,hd,vl,hu: 12% 17% 5% 9% 12% 11% 12% 10% 13%
x264 [info]: i8c dc,h,v,p: 33% 34% 21% 12%
x264 [info]: Weighted P-Frames: Y:40.6% UV:25.6%
x264 [info]: ref P L0: 37.2% 12.1% 14.1% 7.7% 6.1% 5.4% 4.9% 3.0% 2.8% 2.7% 2.8% 1.3% 0.0%
x264 [info]: ref B L0: 67.9% 11.4% 6.1% 3.5% 2.8% 2.6% 2.3% 1.6% 1.2% 0.7%
x264 [info]: ref B L1: 95.4% 4.6%
x264 [info]: kb/s:1079.83

encoded 42601 frames, 25.60 fps, 1079.84 kb/s
GeneralComplete name : D:\Torrents\V nekotorom carstve.1957.DVDRip.x264.640x.rip by Frost O.S.mp4Format : MPEG-4Format profile : 3GPP Media Release 6 BasicCodec ID : 3gp6 (isom/3gp6/avc1/mp42)File size : 246 MiBDuration : 28 min 24 sOverall bit rate mode : VariableOverall bit rate : 1 212 kb/sEncoded date : UTC 2018-05-11 17:55:21Tagged date : UTC 2018-05-11 17:55:21Writing application : Yamb 2.1.0.0

VideoID : 1Format : AVCFormat/Info : Advanced Video CodecFormat profile : [email protected] settings, CABAC : YesFormat settings, ReFrames : 11 framesCodec ID : avc1Codec ID/Info : Advanced Video CodingDuration : 28 min 24 sBit rate : 1 080 kb/sMaximum bit rate : 3 102 kb/sWidth : 482 pixelsHeight : 360 pixelsDisplay aspect ratio : 4:3Frame rate mode : ConstantFrame rate : 25.000 FPSColor space : YUVChroma subsampling : 4:2:0Bit depth : 8 bitsScan type : ProgressiveBits/(Pixel*Frame) : 0.249Stream size : 219 MiB (89%)Writing library : x264 core 152 r2851 ba24899Encoding settings : cabac=1 / ref=11 / deblock=1:-1:-1 / analyse=0x3:0x133 / me=umh / subme=11 / psy=1 / psy_rd=0.90:0.00 / mixed_ref=1 / me_range=48 / chroma_me=1 / trellis=2 / 8x8dct=1 / cqm=0 / deadzone=21,11 / fast_pskip=0 / chroma_qp_offset=-2 / threads=6 / lookahead_threads=1 / sliced_threads=0 / nr=0 / decimate=0 / interlaced=0 / bluray_compat=0 / constrained_intra=0 / bframes=8 / b_pyramid=2 / b_adapt=2 / b_bias=0 / direct=3 / weightb=1 / open_gop=0 / weightp=2 / keyint=250 / keyint_min=25 / scenecut=40 / intra_refresh=0 / rc=2pass / mbtree=0 / bitrate=1080 / ratetol=1.0 / qcomp=0.70 / qpmin=0 / qpmax=69 / qpstep=4 / cplxblur=20.0 / qblur=0.5 / ip_ratio=1.40 / pb_ratio=1.30 / aq=2:0.90Encoded date : UTC 2018-05-11 17:43:36Tagged date : UTC 2018-05-11 17:55:22Color range : LimitedColor primaries : BT.601 PALTransfer characteristics : BT.470 System B, BT.470 System GMatrix coefficients : BT.601

AudioID : 2Format : AACFormat/Info : Advanced Audio CodecFormat profile : LCCodec ID : 40Duration : 28 min 24 sBit rate mode : VariableBit rate : 128 kb/sMaximum bit rate : 133 kb/sChannel(s) : 2 channelsChannel positions : Front: L RSampling rate : 48.0 kHzFrame rate : 46.875 FPS (1024 spf)Compression mode : LossyStream size : 26.0 MiB (11%)Encoded date : UTC 2018-05-11 17:51:40Tagged date : UTC 2018-05-11 17:55:22


Трекер:  [ 11-Май-2018 21:06 ]

  

Скачать .torrent

Размер .torrent файла 19 KB


Размер: 246 MB
Хэш (hash) релиза: f2672c877deab95ec0e26eecbf91d5f55d1dfe7d

Еще никто не оставлял запись к записи скачать торрент [MULT] В некотором царстве... . Будь первым!

!Обратная связь