Télécharger Part 9 | Before I Fall | Les 100 saison 5 épisode 1

Скачать через торрент [MULT] Золотая антилопа бесплатно русская версия torrent активатор

Статистика раздачи
Размер:  258 MB   |    Зарегистрирован:  2 месяца 9 дней   |    .torrent скачан:  18 раз   |   
Раздают:  1  
   
загрузка...
 
Автор Сообщение

Galfimbul

avatar Galfimbul


Золотая антилопа

Год выпуска: 1954
Страна: СССР
Жанр: мультфильм
Продолжительность: 00:29:43
Перевод: не требуется
Субтитры: нет
Режиссер: Лев Атаманов
Роли озвучивали: Валентина Сперантова, Рубен Симонов, Нина Никитина, Александр Грузинский, Коля Тагунов .
Описание: О мальчике, спасшем волшебную антилопу, которая в благодарность помогает ему избавиться от преследования злого раджи .
Релиз группы

Качество: DVDRip / рип с DVD5 Крупный план, без реставрации
Формат: MP4
Видео кодек: H.264
Аудио кодек: AAC
Видео: 476x360 AR:1.32 1080 kbps 25 fps
Аудио: 2ch 48 kHz 128 kbps
avs [info]: 476x360p 1:1 @ 25/1 fps (cfr)
x264 [info]: using SAR=1/1
x264 [info]: using cpu capabilities: MMX2 SSE2Fast SSSE3 SSE4.2 AVX FMA3 BMI2 AVX2
x264 [info]: profile High, level 4.1

x264 [info]: frame I:386 Avg QP:20.47 size: 31759
x264 [info]: frame P:11035 Avg QP:23.79 size: 9497
x264 [info]: frame B:33177 Avg QP:26.03 size: 3734
x264 [info]: consecutive B-frames: 2.8% 2.8% 10.1% 43.8% 18.8% 12.7% 4.3% 2.9% 1.8%
x264 [info]: mb I I16..4: 4.8% 52.5% 42.8%
x264 [info]: mb P I16..4: 0.9% 5.2% 1.9% P16..4: 34.9% 31.8% 15.0% 2.9% 0.4% skip: 6.9%
x264 [info]: mb B I16..4: 0.1% 0.6% 0.2% B16..8: 31.1% 20.6% 4.9% direct:10.0% skip:32.5% L0:41.9% L1:36.2% BI:21.8%
x264 [info]: 8x8 transform intra:62.0% inter:49.3%
x264 [info]: direct mvs spatial:95.5% temporal:4.5%
x264 [info]: coded y,uvDC,uvAC intra: 78.5% 73.1% 49.8% inter: 34.3% 23.3% 6.8%
x264 [info]: i16 v,h,dc,p: 56% 14% 11% 19%
x264 [info]: i8 v,h,dc,ddl,ddr,vr,hd,vl,hu: 9% 10% 16% 8% 11% 8% 13% 9% 16%
x264 [info]: i4 v,h,dc,ddl,ddr,vr,hd,vl,hu: 14% 12% 9% 8% 12% 10% 11% 10% 14%
x264 [info]: i8c dc,h,v,p: 33% 36% 19% 11%
x264 [info]: Weighted P-Frames: Y:57.1% UV:38.7%
x264 [info]: ref P L0: 39.8% 12.1% 13.8% 8.6% 6.1% 5.5% 4.5% 3.0% 2.5% 2.6% 1.5% 0.0%
x264 [info]: ref B L0: 69.3% 13.0% 5.8% 3.5% 2.6% 2.5% 1.9% 1.0% 0.5%
x264 [info]: ref B L1: 94.4% 5.6%
x264 [info]: kb/s:1080.45

encoded 44598 frames, 29.99 fps, 1080.46 kb/s
GeneralComplete name : D:\Torrents\Zolotaya_antilopa.1954.DVDRip.x264.640x.rip by Frost O.mp4Format : MPEG-4Format profile : 3GPP Media Release 6 BasicCodec ID : 3gp6 (isom/3gp6/avc1/mp42)File size : 258 MiBDuration : 29 min 43 sOverall bit rate mode : VariableOverall bit rate : 1 212 kb/sEncoded date : UTC 2018-05-11 07:39:12Tagged date : UTC 2018-05-11 07:39:12Writing application : Yamb 2.1.0.0

VideoID : 1Format : AVCFormat/Info : Advanced Video CodecFormat profile : [email protected] settings, CABAC : YesFormat settings, ReFrames : 10 framesCodec ID : avc1Codec ID/Info : Advanced Video CodingDuration : 29 min 43 sBit rate : 1 080 kb/sMaximum bit rate : 2 792 kb/sWidth : 476 pixelsHeight : 360 pixelsDisplay aspect ratio : 4:3Frame rate mode : ConstantFrame rate : 25.000 FPSColor space : YUVChroma subsampling : 4:2:0Bit depth : 8 bitsScan type : ProgressiveBits/(Pixel*Frame) : 0.252Stream size : 230 MiB (89%)Writing library : x264 core 152 r2851 ba24899Encoding settings : cabac=1 / ref=10 / deblock=1:-1:-1 / analyse=0x3:0x133 / me=umh / subme=11 / psy=1 / psy_rd=0.80:0.00 / mixed_ref=1 / me_range=48 / chroma_me=1 / trellis=2 / 8x8dct=1 / cqm=0 / deadzone=21,11 / fast_pskip=0 / chroma_qp_offset=-2 / threads=6 / lookahead_threads=1 / sliced_threads=0 / nr=0 / decimate=0 / interlaced=0 / bluray_compat=0 / constrained_intra=0 / bframes=8 / b_pyramid=2 / b_adapt=2 / b_bias=0 / direct=3 / weightb=1 / open_gop=0 / weightp=2 / keyint=250 / keyint_min=25 / scenecut=40 / intra_refresh=0 / rc=2pass / mbtree=0 / bitrate=1080 / ratetol=1.0 / qcomp=0.65 / qpmin=0 / qpmax=69 / qpstep=4 / cplxblur=20.0 / qblur=0.5 / ip_ratio=1.40 / pb_ratio=1.30 / aq=2:0.90Encoded date : UTC 2018-05-11 07:32:30Tagged date : UTC 2018-05-11 07:39:13Color range : LimitedColor primaries : BT.601 PALTransfer characteristics : BT.470 System B, BT.470 System GMatrix coefficients : BT.601

AudioID : 2Format : AACFormat/Info : Advanced Audio CodecFormat profile : LCCodec ID : 40Duration : 29 min 43 sBit rate mode : VariableBit rate : 128 kb/sMaximum bit rate : 132 kb/sChannel(s) : 2 channelsChannel positions : Front: L RSampling rate : 48.0 kHzFrame rate : 46.875 FPS (1024 spf)Compression mode : LossyStream size : 27.2 MiB (11%)Encoded date : UTC 2018-05-11 07:37:02Tagged date : UTC 2018-05-11 07:39:13


Трекер:  [ 11-Май-2018 11:06 ]

  

Скачать .torrent

Размер .torrent файла 10 KB


Размер: 258 MB
Хэш (hash) релиза: 997eb18a40a4cbf886f6dd673857d610e9559c5e

Еще никто не оставлял запись к записи скачать торрент [MULT] Золотая антилопа . Будь первым!

!Обратная связь