The Cloverfield Paradox | Fantasia | MASQUER LES COMMENTAIRES

Скачать через торрент Поезд на Париж The 15:17 to Paris Фильм бесплатно в хорошем качестве torrent

Скачивайте на UnionPeer.org фильмы через торрент без регистрации. Новинки кино в хорошем качестве через торрент. На UnionPeer.org можно скачать через торрент фильмы 2014 и 2015 годов. Самые новые фильмы.

Скачать торрент Поезд на Париж The 15:17 to Paris бесплатно через .torrent фильм мультфильм сериал

Статистика раздачи
Размер:  6.64 GB   |    Зарегистрирован:  1 месяц 14 дней   |    .torrent скачан:  116 раз   |   
Раздают:  1  
   
загрузка...
 
Автор Сообщение

Galfimbul

avatar Galfimbul


Поезд на Париж /The 15:17 to Paris

Год выхода: 2018
Жанр: Триллер, драма, история
Режиссер: Клинт Иствуд
В ролях: Спенсер Стоун, Энтони Сэдлер, Алек Скарлатос, Джуди Грир, Дженна Фишер, Рэй Корасани, Тони Хейл, Томас Леннон, Синква Уоллс, Лиллиэн Соланж Бодуан

О фильме:
В центре сюжета события, произошедшие ранним вечером 21 августа 2015 года, когда весь мир, затаив дыхание, наблюдал за предотвращением террористической атаки в скоростном поезде N 9364 тремя бравыми молодыми американцами, которые в это время путешествовали по Европе.



Страна: США
Студия: Malpaso Productions
Продолжительность: 01:33:51
Перевод: Дублированный | iTunes

Файл
Кодек: x.264
Качество: BDRip 1080p
Видео: MPEG-4 AVC, 1920x808, ~9362 Kбит/с, 23.976 кадр/с
Звук:
Аудио #1: Русский ( АС3, 6ch, 384 Кбит/с, 48.0 KHz) Профессиональный (дублированный) iTunes
Аудио #2: Английский ( АС3, 6ch, 384 Кбит/с, 48.0 KHz)
Трейлер
Источник: The.15.17.to.Paris.2018.1080p.BluRay.x264-GECKOS
General
Unique ID : 252626137667943189502159144768699316618 (0xBE0E063A4AA2BEECBD9877474F67398A)
Complete name : The.15.17.to.Paris.2018.BDRip.1080p.mkv
Format : Matroska
Format version : Version 4 / Version 2
File size : 6.64 GiB
Duration : 1 h 33 min
Overall bit rate : 10.1 Mb/s
Encoded date : UTC 2018-05-09 18:27:51
Writing application : mkvmerge v7.1.0 ('Good Love') 64bit built on Jul 27 2014 13:06:55
Writing library : libebml v1.3.0 + libmatroska v1.4.1

Video
ID : 1
Format : AVC
Format/Info : Advanced Video Codec
Format profile : [email protected]
Format settings : CABAC / 5 Ref Frames
Format settings, CABAC : Yes
Format settings, ReFrames : 5 frames
Codec ID : V_MPEG4/ISO/AVC
Duration : 1 h 33 min
Bit rate : 9 362 kb/s
Width : 1 920 pixels
Height : 808 pixels
Display aspect ratio : 2.40:1
Frame rate mode : Constant
Frame rate : 23.976 FPS
Color space : YUV
Chroma subsampling : 4:2:0
Bit depth : 8 bits
Scan type : Progressive
Bits/(Pixel*Frame) : 0.252
Stream size : 6.13 GiB (92%)
Writing library : x264 core 155 r2901 7d0ff22
Encoding settings : cabac=1 / ref=5 / deblock=1:0:0 / analyse=0x3:0x133 / me=umh / subme=7 / psy=1 / psy_rd=1.00:0.00 / mixed_ref=1 / me_range=16 / chroma_me=1 / trellis=1 / 8x8dct=1 / cqm=0 / deadzone=21,11 / fast_pskip=0 / chroma_qp_offset=-2 / threads=25 / lookahead_threads=4 / sliced_threads=0 / nr=0 / decimate=1 / interlaced=0 / bluray_compat=0 / constrained_intra=0 / bframes=3 / b_pyramid=2 / b_adapt=1 / b_bias=0 / direct=1 / weightb=1 / open_gop=0 / weightp=2 / keyint=250 / keyint_min=23 / scenecut=40 / intra_refresh=0 / rc_lookahead=40 / rc=2pass / mbtree=1 / bitrate=9362 / ratetol=1.0 / qcomp=0.60 / qpmin=0 / qpmax=69 / qpstep=4 / cplxblur=20.0 / qblur=0.5 / ip_ratio=1.40 / aq=1:1.00
Language : English
Default : Yes
Forced : No

Audio #1
ID : 2
Format : AC-3
Format/Info : Audio Coding 3
Codec ID : A_AC3
Duration : 1 h 33 min
Bit rate mode : Constant
Bit rate : 384 kb/s
Channel(s) : 6 channels
Channel positions : Front: L C R, Side: L R, LFE
Sampling rate : 48.0 kHz
Frame rate : 31.250 FPS (1536 SPF)
Bit depth : 16 bits
Compression mode : Lossy
Stream size : 258 MiB (4%)
Language : Russian
Service kind : Complete Main
Default : Yes
Forced : No

Audio #2
ID : 3
Format : AC-3
Format/Info : Audio Coding 3
Codec ID : A_AC3
Duration : 1 h 33 min
Bit rate mode : Constant
Bit rate : 384 kb/s
Channel(s) : 6 channels
Channel positions : Front: L C R, Side: L R, LFE
Sampling rate : 48.0 kHz
Frame rate : 31.250 FPS (1536 SPF)
Bit depth : 16 bits
Compression mode : Lossy
Stream size : 258 MiB (4%)
Language : English
Service kind : Complete Main
Default : No
Forced : No

Menu
00:00:00.000 : en:00:00:00.000
00:09:51.925 : en:00:09:51.925
00:19:23.204 : en:00:19:23.204
00:30:49.264 : en:00:30:49.264
00:44:00.304 : en:00:44:00.304
00:52:51.168 : en:00:52:51.168
01:04:22.609 : en:01:04:22.609
01:11:52.767 : en:01:11:52.767
01:21:46.151 : en:01:21:46.151
01:27:00.340 : en:01:27:00.340
Источник http://blator.org

Трекер:  [ 10-Май-2018 09:00 ]

  

Скачать .torrent

Размер .torrent файла 17 KB


Размер: 6.64 GB
Хэш (hash) релиза: 5cead03d4b89e975fc8008519639d584d736a8cf
Подписка на обновления:

Торренты, похожие на Поезд на Париж The 15:17 to Paris скачать торрент

Форум Название Автор Размер S L Добавлен
Трейлеры и дополнительные материалы ·· Поезд на Париж / The 15:17 to Paris (Клинт Иствуд / Clint Eastwood) [2017, Триллер | Драма | История, BDRip 720p] дополнительные материалы Galfimbul 649370139619 MB 0 0 1527318089

10:01

26-Май-18

Зарубежные фильмы до 2016 ·· Поезд на Париж / The 15:17 to Paris (Клинт Иствуд / Clint Eastwood) [2018, США, триллер, драма, история, BDRip 720p] Dub + Sub Rus, Eng + Original Eng Galfimbul 45389130934.23 GB 0 0 1526769029

01:30

20-Май-18

Зарубежные фильмы до 2016 ·· Поезд на Париж / The 15:17 to Paris (Клинт Иствуд / Clint Eastwood) [2018, США, триллер, драма, история, Blu-ray disc 1080p] [EUR] Dub + Sub Rus, Eng + Original Eng Galfimbul 2738700551325.51 GB 0 0 1526718703

11:31

19-Май-18

Зарубежные фильмы 2016-2018 (Новинки зарубежного кино) ·· Поезд на Париж / The 15:17 to Paris (Клинт Иствуд) [2018, Триллер, драма, история, Blu-ray EUR] Лицензия Galfimbul 2738700551325.51 GB 0 0 1526419405

00:23

16-Май-18

Зарубежные фильмы 2016-2018 (Новинки зарубежного кино) ·· Поезд на Париж / The 15:17 to Paris (Клинт Иствуд) [2018, Триллер, драма, история, WEB-DL 720p] iTunes Galfimbul 27840089832.59 GB 0 0 1525405207

06:40

4-Май-18

Зарубежные фильмы 2016-2018 (Новинки зарубежного кино) ·· Поезд на Париж / The 15:17 to Paris (Клинт Иствуд) [2018, Триллер, драма, история, WEB-DL 1080p] iTunes Galfimbul 37343394303.48 GB 0 0 1525338013

12:00

3-Май-18

Еще никто не оставлял запись к записи скачать торрент Поезд на Париж The 15:17 to Paris . Будь первым!

!Обратная связь