Season 3 Episode 10 | Season 4 Episode 4 Legacy | Season 4 Episode 5 Die Glocke

Скачать через торрент Турецкое седло Фильм бесплатно в хорошем качестве torrent

Скачивайте на UnionPeer.org фильмы через торрент без регистрации. Новинки кино в хорошем качестве через торрент. На UnionPeer.org можно скачать через торрент фильмы 2014 и 2015 годов. Самые новые фильмы.

Скачать торрент Турецкое седло бесплатно через .torrent фильм мультфильм сериал

Статистика раздачи
Размер:  1.09 GB   |    Зарегистрирован:  1 месяц 17 дней   |    .torrent скачан:  62 раза   |   
Раздают:  1  
   
загрузка...
 
Автор Сообщение

Galfimbul

avatar Galfimbul


Турецкое седло

Жанр: драма
Год выпуска: 2017
Продолжительность: 01:12:30

Режиссёр: Юсуп Разыков

В ролях: Валерий Маслов, Вероника Кузнецова, Виталий Даушев, Илья Коврижных, Сергей Генкин, Анна Беленькая, Алиса Вединяпина, Сергей Атрощенко
Описание: Тихий и неприметный Ильич — бывший «топтун», опытный агент по наружному наблюдению в КГБ, затем ФСБ. Теперь он на пенсии. От одиночества он продолжает следить за теми, кто пробуждает в нём интерес, любопытство. Однажды в его доме поселяются новые соседи — молодая семейная пара, музыканты, и жизнь Ильича неожиданно меняется. Он влюбляется. Сначала в голос, распевающий божественные арии, а затем и в саму прекрасную соседку. Повинуясь непреодолимому желанию, герой начинает тайно следовать за объектом своей страсти, и оказывается в совершенно новом, неведомом мире. Бывший агент еще не подозревает, что последствия этого пути окажутся шокирующими и непоправимыми.

Кинопоиск
Sample

Качество видео: WEB-DLRip
Формат видео: AVI

Видео: 720x400 (1.80:1), 25 fps, XviD, ~1952 kbps avg, 0.271 bit/pixel
Аудио: 48 kHz, AC3 Dolby Digital, 2/0 (L,R) ch, ~192 kbps
General
Complete name : D:\Турецкое седло 2017 WEB-DLRip.avi
Format : AVI
Format/Info : Audio Video Interleave
File size : 1.09 GiB
Duration : 1h 12mn
Overall bit rate : 2 153 Kbps
Writing application : VirtualDubMod 1.5.10.3 | www.virtualdub-fr.org || (build 2550/release)
Writing library : VirtualDubMod build 2550/release

Video
ID : 0
Format : MPEG-4 Visual
Format profile : Advanced [email protected]
Format settings, BVOP : 1
Format settings, QPel : No
Format settings, GMC : No warppoints
Format settings, Matrix : Default (H.263)
Codec ID : XVID
Codec ID/Hint : XviD
Duration : 1h 12mn
Bit rate : 1 952 Kbps
Width : 720 pixels
Height : 400 pixels
Display aspect ratio : 16:9
Frame rate : 25.000 fps
Color space : YUV
Chroma subsampling : 4:2:0
Bit depth : 8 bits
Scan type : Progressive
Compression mode : Lossy
Bits/(Pixel*Frame) : 0.271
Stream size : 1 012 MiB (91%)
Writing library : XviD 1.2.1 (UTC 2008-12-04)

Audio
ID : 1
Format : AC-3
Format/Info : Audio Coding 3
Mode extension : CM (complete main)
Format settings, Endianness : Big
Codec ID : 2000
Duration : 1h 12mn
Bit rate mode : Constant
Bit rate : 192 Kbps
Channel count : 2 channels
Channel positions : Front: L R
Sampling rate : 48.0 KHz
Bit depth : 16 bits
Compression mode : Lossy
Stream size : 99.6 MiB (9%)
Alignment : Split accross interleaves
Interleave, duration : 40 ms (1.00 video frame)
Interleave, preload duration : 500 ms


Трекер:  [ 08-Май-2018 05:24 ]

  

Скачать .torrent

Размер .torrent файла 11 KB


Размер: 1.09 GB
Хэш (hash) релиза: 4d3f6d8db376590ca736563bbf835029b6968ea5
Подписка на обновления:

Торренты, похожие на Турецкое седло скачать торрент

Форум Название Автор Размер S L Добавлен
Российские фильмы 2016-2018 (Новинки русского кино) ·· Турецкое седло [2017, Драма, WEB-DL 720p] Galfimbul 17837337121.66 GB 0 0 1525680139

11:02

7-Май-18

Еще никто не оставлял запись к записи скачать торрент Турецкое седло . Будь первым!

!Обратная связь