Ricki and the Flash | Les Tuche 3 | Geneviève Bujold

Скачать через торрент Кролик Питер Peter Rabbit Фильм бесплатно в хорошем качестве torrent

Скачивайте на UnionPeer.org фильмы через торрент без регистрации. Новинки кино в хорошем качестве через торрент. На UnionPeer.org можно скачать через торрент фильмы 2014 и 2015 годов. Самые новые фильмы.

Скачать торрент Кролик Питер Peter Rabbit бесплатно через .torrent фильм мультфильм сериал

Статистика раздачи
Размер:  4.42 GB   |    Зарегистрирован:  1 месяц 16 дней   |    .torrent скачан:  86 раз   |   
Раздают:  1  
   
загрузка...
 
Автор Сообщение

Galfimbul

avatar Galfimbul


Кролик Питер / Peter Rabbit

Страна: Австралия, США
Жанр: фэнтези, комедия, приключения, семейный
Год выпуска: 2018
Продолжительность: 01:34:42

Перевод: Профессиональный (дублированный)
Субтитры: Русские (Форсированные, Полные), Украинские (Полные), Английские (Full, SDH, SDH-Colored)
Оригинальная аудиодорожка: Английский
Навигация по главам: есть

Режиссёр: Уилл Глак / Will Gluck

Роли озвучивали: Джеймс Корден, Файсаль Баззи, Донал Глисон, Сиа, Колин Муди, Сэм Нилл, Марго Робби, Элизабет Дебики, Дэйзи Ридли, Роуз Бирн...

Описание: Фильм о приключениях маленького и непоседливого крольчонка по имени Питер, который хочет пробраться в огород к грозному фермеру и вдоволь полакомиться там фруктами и овощами.

Доп. информация: | IMDB | КиноПоиск | Сэмпл |

Тип релиза: BDRip 720p Peter Rabbit (2018) Blu-ray Disc-BLUEBIRD
Контейнер: MKV
Видео: AVC, 1280x534 (2.40:1), 4757 kbps, 23.976 fps, 0.290 bit/pixel
Аудио 1: AC3 Dolby Digital, 3/2 (L,C,R,l,r) + LFE ch, 48.0 KHz, 640 Kbps - Русский, дубляж
Аудио 2: AC3 Dolby Digital, 3/2 (L,C,R,l,r) + LFE ch, 48.0 KHz, 640 Kbps - Украинский, дубляж
Аудио 3: AC3 Dolby Digital, 3/2 (L,C,R,l,r) + LFE ch, 48.0 KHz, 640 Kbps - Английский
Формат субтитров: softsub (SRT)


<div class="sp-wrap">
<div class="sp-head folded">Запасные Скриншоты</div>
<div class="sp-body">
</div>
</div>
<div class="sp-wrap">
<div class="sp-head folded">x264</div>
<div class="sp-body">raw [info]: 1280x534p 1:1 @ 24000/1001 fps (cfr)
x264 [info]: using SAR=1/1
x264 [info]: using cpu capabilities: MMX2 SSE2Fast SSSE3 SSE4.2 AVX
x264 [info]: profile High, level 4.1
x264 [info]: frame I:1557 Avg QP:16.15 size:136023
x264 [info]: frame P:30444 Avg QP:17.38 size: 50540
x264 [info]: frame B:104246 Avg QP:19.78 size: 15625
x264 [info]: consecutive B-frames: 2.4% 3.5% 6.2% 31.1% 16.5% 29.6% 3.8% 2.1% 0.7% 3.6% 0.3% 0.3%
x264 [info]: mb I I16..4: 3.1% 80.2% 16.7%
x264 [info]: mb P I16..4: 0.5% 16.2% 2.1% P16..4: 31.2% 26.4% 17.6% 0.0% 0.0% skip: 6.0%
x264 [info]: mb B I16..4: 0.1% 1.8% 0.3% B16..8: 35.1% 13.7% 5.2% direct: 7.5% skip:36.3% L0:38.6% L1:40.3% BI:21.1%
x264 [info]: 8x8 transform intra:84.6% inter:61.2%
x264 [info]: coded y,uvDC,uvAC intra: 95.2% 95.0% 85.2% inter: 32.4% 29.0% 12.7%
x264 [info]: i16 v,h,dc,p: 22% 21% 10% 48%
x264 [info]: i8 v,h,dc,ddl,ddr,vr,hd,vl,hu: 14% 11% 8% 8% 12% 11% 12% 11% 13%
x264 [info]: i4 v,h,dc,ddl,ddr,vr,hd,vl,hu: 15% 10% 3% 8% 15% 13% 14% 10% 12%
x264 [info]: i8c dc,h,v,p: 50% 18% 16% 16%
x264 [info]: Weighted P-Frames: Y:3.9% UV:1.8%
x264 [info]: ref P L0: 51.0% 15.8% 14.8% 5.2% 4.3% 2.9% 2.7% 1.5% 1.7% 0.1% 0.0%
x264 [info]: ref B L0: 80.6% 9.5% 4.1% 2.1% 1.5% 1.2% 0.7% 0.3%
x264 [info]: ref B L1: 95.3% 4.7%
x264 [info]: kb/s:4757.30
General
Unique ID : 198163533659551630283941328976629831061 (0x9514E888B6246F7983AE69F76D199595)
Complete name : Peter Rabbit (2018).BDRip-720p.mkv
Format : Matroska
Format version : Version 4 / Version 2
File size : 4.42 GiB
Duration : 1 h 34 min
Overall bit rate : 6 681 kb/s
Movie name : Кролик Питер / Peter Rabbit (2018)
Encoded date : UTC 2018-05-07 07:49:55
Writing application : mkvmerge v8.1.0 ('Psychedelic Postcard') 64bit
Writing library : libebml v1.3.1 + libmatroska v1.4.2
Cover : Yes
Attachments : cover.jpg

Video
ID : 1
Format : AVC
Format/Info : Advanced Video Codec
Format profile : [email protected]
Format settings : CABAC / 9 Ref Frames
Format settings, CABAC : Yes
Format settings, ReFrames : 9 frames
Codec ID : V_MPEG4/ISO/AVC
Duration : 1 h 34 min
Bit rate : 4 757 kb/s
Width : 1 280 pixels
Height : 534 pixels
Display aspect ratio : 2.40:1
Frame rate mode : Constant
Frame rate : 23.976 (24000/1001) FPS
Color space : YUV
Chroma subsampling : 4:2:0
Bit depth : 8 bits
Scan type : Progressive
Bits/(Pixel*Frame) : 0.290
Stream size : 3.15 GiB (71%)
Title : Peter Rabbit (2018) By optik.1557
Writing library : x264 core 155 r2901 7d0ff22
Encoding settings : cabac=1 / ref=9 / deblock=1:-2:-1 / analyse=0x3:0x113 / me=umh / subme=10 / psy=1 / psy_rd=1.05:0.01 / mixed_ref=1 / me_range=32 / chroma_me=1 / trellis=2 / 8x8dct=1 / cqm=0 / deadzone=21,11 / fast_pskip=0 / chroma_qp_offset=-3 / threads=6 / lookahead_threads=1 / sliced_threads=0 / nr=0 / decimate=1 / interlaced=0 / bluray_compat=0 / constrained_intra=0 / bframes=11 / b_pyramid=2 / b_adapt=2 / b_bias=0 / direct=1 / weightb=1 / open_gop=0 / weightp=2 / keyint=250 / keyint_min=23 / scenecut=40 / intra_refresh=0 / rc_lookahead=60 / rc=crf / mbtree=0 / crf=16.9 / qcomp=0.70 / qpmin=0 / qpmax=69 / qpstep=4 / vbv_maxrate=50000 / vbv_bufsize=62500 / crf_max=0.0 / nal_hrd=none / filler=0 / ip_ratio=1.40 / pb_ratio=1.30 / aq=3:0.85
Language : English
Default : Yes
Forced : No

Audio #1
ID : 2
Format : AC-3
Format/Info : Audio Coding 3
Codec ID : A_AC3
Duration : 1 h 34 min
Bit rate mode : Constant
Bit rate : 640 kb/s
Channel(s) : 6 channels
Channel positions : Front: L C R, Side: L R, LFE
Sampling rate : 48.0 kHz
Frame rate : 31.250 FPS (1536 SPF)
Bit depth : 16 bits
Compression mode : Lossy
Stream size : 434 MiB (10%)
Title : Дубляж
Language : Russian
Service kind : Complete Main
Default : Yes
Forced : No

Audio #2
ID : 3
Format : AC-3
Format/Info : Audio Coding 3
Codec ID : A_AC3
Duration : 1 h 34 min
Bit rate mode : Constant
Bit rate : 640 kb/s
Channel(s) : 6 channels
Channel positions : Front: L C R, Side: L R, LFE
Sampling rate : 48.0 kHz
Frame rate : 31.250 FPS (1536 SPF)
Bit depth : 16 bits
Compression mode : Lossy
Stream size : 434 MiB (10%)
Title : Дубляж
Language : Ukrainian
Service kind : Complete Main
Default : No
Forced : No

Audio #3
ID : 4
Format : AC-3
Format/Info : Audio Coding 3
Codec ID : A_AC3
Duration : 1 h 34 min
Bit rate mode : Constant
Bit rate : 640 kb/s
Channel(s) : 6 channels
Channel positions : Front: L C R, Side: L R, LFE
Sampling rate : 48.0 kHz
Frame rate : 31.250 FPS (1536 SPF)
Bit depth : 16 bits
Compression mode : Lossy
Stream size : 434 MiB (10%)
Title : Original
Language : English
Service kind : Complete Main
Default : No
Forced : No

Text #1
ID : 5
Format : UTF-8
Codec ID : S_TEXT/UTF8
Codec ID/Info : UTF-8 Plain Text
Duration : 1 h 33 min
Bit rate : 0 b/s
Count of elements : 12
Stream size : 458 Bytes (0%)
Title : Форсированные
Language : Russian
Default : Yes
Forced : No

Text #2
ID : 6
Format : UTF-8
Codec ID : S_TEXT/UTF8
Codec ID/Info : UTF-8 Plain Text
Duration : 1 h 33 min
Bit rate : 111 b/s
Count of elements : 1556
Stream size : 76.4 KiB (0%)
Title : Полные
Language : Russian
Default : No
Forced : No

Text #3
ID : 7
Format : UTF-8
Codec ID : S_TEXT/UTF8
Codec ID/Info : UTF-8 Plain Text
Duration : 1 h 33 min
Bit rate : 104 b/s
Count of elements : 1556
Stream size : 71.5 KiB (0%)
Title : Полные
Language : Ukrainian
Default : No
Forced : No

Text #4
ID : 8
Format : UTF-8
Codec ID : S_TEXT/UTF8
Codec ID/Info : UTF-8 Plain Text
Duration : 1 h 33 min
Bit rate : 71 b/s
Count of elements : 1726
Stream size : 49.5 KiB (0%)
Title : Full
Language : English
Default : No
Forced : No

Text #5
ID : 9
Format : UTF-8
Codec ID : S_TEXT/UTF8
Codec ID/Info : UTF-8 Plain Text
Duration : 1 h 33 min
Bit rate : 79 b/s
Count of elements : 1940
Stream size : 54.7 KiB (0%)
Title : SDH
Language : English
Default : No
Forced : No

Text #6
ID : 10
Format : UTF-8
Codec ID : S_TEXT/UTF8
Codec ID/Info : UTF-8 Plain Text
Duration : 1 h 26 min
Bit rate : 151 b/s
Count of elements : 1901
Stream size : 95.4 KiB (0%)
Title : SDH-Colored
Language : English
Default : No
Forced : No

Menu
00:00:00.000 : en:00:00:00.000
00:04:04.786 : en:00:04:04.786
00:08:26.297 : en:00:08:26.297
00:15:11.702 : en:00:15:11.702
00:21:00.634 : en:00:21:00.634
00:25:43.584 : en:00:25:43.584
00:30:50.265 : en:00:30:50.265
00:38:00.862 : en:00:38:00.862
00:44:37.341 : en:00:44:37.341
00:50:07.671 : en:00:50:07.671
00:56:21.295 : en:00:56:21.295
01:01:07.581 : en:01:01:07.581
01:07:02.560 : en:01:07:02.560
01:10:30.810 : en:01:10:30.810
01:14:35.137 : en:01:14:35.137
01:21:51.990 : en:01:21:51.990</div>
</div>

Трекер:  [ 08-Май-2018 01:30 ]

  

Скачать .torrent

Размер .torrent файла 11 KB


Размер: 4.42 GB
Хэш (hash) релиза: 34f4998ae2e2ecfa500337ec0e2858efb1371fd0
Подписка на обновления:

Торренты, похожие на Кролик Питер Peter Rabbit скачать торрент

Форум Название Автор Размер S L Добавлен
Зарубежные фильмы до 2016 ·· Кролик Питер / Peter Rabbit (Уилл Глак / Will Gluck) [2018, Австралия, США, фэнтези, комедия, приключения, семейный, UHD Blu-ray disc 2160p] [EUR] Dub + Sub Rus, Eng + Original Eng Galfimbul 5135390972847.83 GB 0 0 1525428096

13:01

4-Май-18

Зарубежные фильмы 2016-2018 (Новинки зарубежного кино) ·· Кролик Питер / Peter Rabbit (Уилл Глак) [2018 г., мультфильм, фэнтези, комедия, приключения, семейный, HDRip] Лицензия Galfimbul 15768400881.47 GB 0 0 1525411811

08:30

4-Май-18

Зарубежные фильмы 2016-2018 (Новинки зарубежного кино) ·· Кролик Питер / Peter Rabbit (Уилл Глак) [2018 г., мультфильм, фэнтези, комедия, приключения, семейный, BDRip 1080p] DUB | Чистый звук Galfimbul 79477102657.4 GB 0 0 1524068509

19:21

18-Апр-18

Зарубежные фильмы 2016-2018 (Новинки зарубежного кино) ·· Кролик Питер / Peter Rabbit (Уилл Глак) [2018 г., мультфильм, фэнтези, комедия, приключения, семейный, HDRip] DUB | Чистый звук Galfimbul 14676520961.37 GB 0 0 1524068508

19:21

18-Апр-18

Зарубежные фильмы 2016-2018 (Новинки зарубежного кино) ·· Кролик Питер / Peter Rabbit (Уилл Глак) [2018 г., мультфильм, фэнтези, комедия, приключения, семейный, BDRip 720p] DUB | Чистый звук Galfimbul 48565650914.52 GB 0 0 1524068506

19:21

18-Апр-18

Мультфильмы 2016-2018 (Новинки мультфильмов) ·· Кролик Питер / Peter Rabbit (Уилл Глак) [2018 г., мультфильм, фэнтези, комедия, приключения, семейный, WEB-DLRip] DUB Galfimbul 14676766721.37 GB 0 0 1523779578

11:06

15-Апр-18

Мультфильмы 2016-2018 (Новинки мультфильмов) ·· Кролик Питер / Peter Rabbit (Уилл Глак) [2018 г., мультфильм, фэнтези, комедия, приключения, семейный, TS] DUB Galfimbul 14678446081.37 GB 0 0 1522049302

10:28

26-Мар-18

Мультсериалы ·· Мир Кролика Питера (Питер Пуш и его друзья) / The Beatrix Potter - The World of Peter Rabbit and Friends / Сезон: Серии: 6 из 9 (Диана Джексон / Dianne Jackson) [1992-1995, Великобритания, Мультсериал, семейный, DVDRip] Dub + Rus Sub Galfimbul 86512394248.06 GB 0 0 1456512482

21:48

26-Фев-16

Еще никто не оставлял запись к записи скачать торрент Кролик Питер Peter Rabbit . Будь первым!

!Обратная связь