Sarah Croce | Lucifer S03E26 WEB x264-TBS[eztv] | Mode Nuit

Скачать через торрент Простоквашино Сезон: 1 Фильм бесплатно в хорошем качестве torrent

Скачивайте на UnionPeer.org фильмы через торрент без регистрации. Новинки кино в хорошем качестве через торрент. На UnionPeer.org можно скачать через торрент фильмы 2014 и 2015 годов. Самые новые фильмы.

Скачать торрент Простоквашино Сезон: 1 бесплатно через .torrent фильм мультфильм сериал

Статистика раздачи
Размер:  199 MB   |    Зарегистрирован:  1 месяц 20 дней   |    .torrent скачан:  56 раз   |   
Раздают:  1  
   
загрузка...
 
Автор Сообщение

Galfimbul

avatar Galfimbul


Простоквашино

Страна: россия
Жанр: мультфильм, детский
Продолжительность серии: 00:06:30
Год выпуска: 2018
Русские субтитры: нет

Режиссёр: Михаил Солошенко
Роли озвучивали: Антон Табаков
Гарик Сукачев
Иван Охлобыстин
Юлия Меньшова
Андрей Тенетко
Ольга Голованова
Алексей Онежен

Описание: Казалось, никакие бури внешнего мира не смогут поколебать привычный и размеренный ход деревенской жизни Простоквашино. Время как будто застыло. Все так же каждое утро Матроскин дегустирует свежее молоко, полученное от своей любимицы — коровы Мурки. Все так же Шарик проводит время в окрестных лесах, «фотоохотясь» на редкую дичь. Правда, теперь он научился выкладывать фотографии своей добычи в интернет. И все так же, при каждой возможности, их навещает Дядя Федор. И тогда они весело и дружно проводят время своей мужской компанией. И когда им уже стало казаться, что так будет всегда, внезапно все изменилось с появлением одной маленькой девочки, родной сестры Дяди Фёдора. И имя этой девочки — Вера Павловна.

Список серий:
1. Возвращение в Простоквашино - часть 1
2. Возвращение в Простоквашино - часть 2

Доп. информация: http://www.kinopoisk.ru/film/prostokvashino-2018-1115407/

Семпл: http://sendfile.su/1417276

Качество: WEB-DLRip Спасибо Skreech с кинозала
Формат: AVI
Видео: 720x400 (1.80:1), 25 fps, XviD build 73 ~2006 kbps avg, 0.28 bit/pixel
Аудио: 44.100 kHz, MPEG Layer 3, 2 ch, ~128.00 kbps avg 1 серия
Аудио 2: 48 kHz, MPEG Layer 3, 2 ch, ~128.00 kbps avg 2 серия
Субтитры: отсутствуют
File: Prostokvashino.01.aviFilesize: 99.73 Mb ( 104 572 928 bytes )Play length: 00:06:30.079 (9752 frames)Subtitles: Not PresentVideo: 720x400 (1.80:1), 25 fps, XviD build 73 ~2006 kbps avg, 0.28 bit/pixelAudio: 44.100 kHz, MPEG Layer 3, 2 ch, ~128.00 kbps avg



ОбщееПолное имя : C:\Prostokvashino\Prostokvashino.01.aviФормат : AVIФормат/Информация : Audio Video InterleaveРазмер файла : 99,7 МбайтПродолжительность : 6 м. 30 с.Общий поток : 2145 Кбит/секПрограмма кодирования : VirtualDubMod 1.5.10.3 | www.virtualdub-fr.org || (build 2550/release)

ВидеоИдентификатор : 0Формат : MPEG-4 VisualПрофиль формата : Advanced [email protected]Настройки формата : BVOP1 / Custom MatrixПараметр BVOP формата : 1Параметр QPel формата : НетПараметр GMC формата : Без точки переходаПараметр матрицы формата : ВыборочнаяИдентификатор кодека : XVIDИдентификатор кодека/Подсказка : XviDПродолжительность : 6 м. 30 с.Битрейт : 2007 Кбит/секШирина : 720 пикселейВысота : 400 пикселейСоотношение сторон : 16:9Частота кадров : 25,000 кадров/секЦветовое пространство : YUVСубдискретизация насыщенности : 4:2:0Битовая глубина : 8 битТип развёртки : ПрогрессивнаяМетод сжатия : С потерямиБит/(Пиксели*Кадры) : 0.279Размер потока : 93,3 Мбайт (94%)Библиотека кодирования : XviD 73

АудиоИдентификатор : 1Формат : MPEG AudioВерсия формата : Version 1Профиль формата : Layer 3Настройки формата : Joint stereo / MS StereoРежим : Joint stereoРасширение режима : MS StereoИдентификатор кодека : 55Идентификатор кодека/Подсказка : MP3Продолжительность : 6 м. 30 с.Вид битрейта : ПостоянныйБитрейт : 128 Кбит/секКаналы : 2 каналаЧастота : 44,1 КГцМетод сжатия : С потерямиРазмер потока : 5,95 Мбайт (6%)Выравнивание : Разделение по промежуткамПродолжительность промежутка : 40 мс. (1,00 видеокадр)Время предзагрузки промежутка : 500 мс.Библиотека кодирования : LAME3.99rНастройки программы : -m j -V 4 -q 2 -lowpass 17 -b 128

File: Prostokvashino.02.aviFilesize: 99.40 Mb ( 104 228 864 bytes )Play length: 00:06:29.880 (9747 frames)Subtitles: Not PresentVideo: 720x400 (1.80:1), 25 fps, XviD build 73 ~2000 kbps avg, 0.28 bit/pixelAudio: 48 kHz, MPEG Layer 3, 2 ch, ~128.00 kbps avg



ОбщееПолное имя : C:\Prostokvashino\Prostokvashino.02.aviФормат : AVIФормат/Информация : Audio Video InterleaveРазмер файла : 99,4 МбайтПродолжительность : 6 м. 29 с.Общий поток : 2139 Кбит/секПрограмма кодирования : VirtualDubMod 1.5.10.3 | www.virtualdub-fr.org || (build 2550/release)Библиотека кодирования : VirtualDubMod build 2550/release

ВидеоИдентификатор : 0Формат : MPEG-4 VisualПрофиль формата : Advanced [email protected]Настройки формата : BVOP1 / Custom MatrixПараметр BVOP формата : 1Параметр QPel формата : НетПараметр GMC формата : Без точки переходаПараметр матрицы формата : ВыборочнаяИдентификатор кодека : XVIDИдентификатор кодека/Подсказка : XviDПродолжительность : 6 м. 29 с.Битрейт : 2001 Кбит/секШирина : 720 пикселейВысота : 400 пикселейСоотношение сторон : 16:9Частота кадров : 25,000 кадров/секЦветовое пространство : YUVСубдискретизация насыщенности : 4:2:0Битовая глубина : 8 битТип развёртки : ПрогрессивнаяМетод сжатия : С потерямиБит/(Пиксели*Кадры) : 0.278Размер потока : 93,0 Мбайт (94%)Библиотека кодирования : XviD 73

АудиоИдентификатор : 1Формат : MPEG AudioВерсия формата : Version 1Профиль формата : Layer 3Настройки формата : Joint stereo / MS StereoРежим : Joint stereoРасширение режима : MS StereoИдентификатор кодека : 55Идентификатор кодека/Подсказка : MP3Продолжительность : 6 м. 29 с.Вид битрейта : ПостоянныйБитрейт : 128 Кбит/секКаналы : 2 каналаЧастота : 48,0 КГцМетод сжатия : С потерямиРазмер потока : 5,95 Мбайт (6%)Выравнивание : Соединение по промежуткамПродолжительность промежутка : 40 мс. (1,00 видеокадр)Время предзагрузки промежутка : 504 мс.Библиотека кодирования : LAME3.99rНастройки программы : -m j -V 4 -q 2 -lowpass 17 -b 128
Внимание! Раздача ведётся путём добавления новых серий; при каждом добавлении создаётся новый торрент. Чтобы начать докачку новой серии, пользователям необходимо сделать следующее:
(1) остановить скачивание,
(2) удалить старый торрент у себя из клиента (старые серии удалять не надо),
(3) скачать новый торрент и запустить его у себя в клиенте вместо старого, при этом указать клиенту путь в старую папку куда и должно происходить скачивание новых серий.

Ваш клиент при этом должен произвести хеширование (проверку) старой папки (если не производит сам - помогите ему сделать это), и будет докачивать только те серии которых у вас ещё нет. Старые серии при этом не удаляются, а продолжают раздаваться!

Eсли вы уже удалили старые серии, то предотвратить повторную закачку старых серий можно, отжав галочку в соответствующих местах при запуске нового торрента. По возможности, желательно не удалять старые серии как можно дольше чтобы релизёр не столько продолжал раздавать старые серии, а смог сконцентрироваться на новых.
...3473252
Предыдущие и альтернативные раздачи

Трекер:  [ 04-Май-2018 23:54 ]

  

Скачать .torrent

Размер .torrent файла 16 KB


Размер: 199 MB
Хэш (hash) релиза: 355c74dabcb602f60f9f6480a09b2b2e054a807d
Подписка на обновления:

Еще никто не оставлял запись к записи скачать торрент Простоквашино Сезон: 1 . Будь первым!

!Обратная связь