Luxembourg | Watch movie | Sei Juushi Bismarck (sub)

Скачать через торрент Каникулы президента Фильм бесплатно в хорошем качестве torrent

Скачивайте на UnionPeer.org фильмы через торрент без регистрации. Новинки кино в хорошем качестве через торрент. На UnionPeer.org можно скачать через торрент фильмы 2014 и 2015 годов. Самые новые фильмы.

Скачать торрент Каникулы президента бесплатно через .torrent фильм мультфильм сериал

Статистика раздачи
Размер:  3.4 GB   |    Зарегистрирован:  1 месяц 24 дня   |    .torrent скачан:  330 раз   |   
Раздают:  1  
   
загрузка...
 
Автор Сообщение

Galfimbul

avatar Galfimbul


Каникулы президента

Страна: Россия
Студия: Андрианова Кино
Жанр: комедия
Год выпуска: 2018
Продолжительность: 01:38:47

Перевод: Не требуется
Субтитры: нет
Оригинальная аудиодорожка: русский

Режиссёр: Илья Шерстобитов

В ролях: Дмитрий Грачев, Анна Цуканова-Котт, Настасья Самбурская, Евгений Сидихин, Кирилл Васильев, Гоша Куценко, Дмитрий Дибров, Роза Хаируллина, Роман Попов, Владимир Носик, Олег Васильков
Описание: Устав от рутины, Президент решает отправиться на каникулы в гордом одиночестве, чтобы отдохнуть в Крыму, а заодно свободно пообщаться с народом. Понимая, что остаться инкогнито и улизнуть от заботливых коллег будет сложно, он прибегает к услугам гримера. Но его новый облик точь-в-точь совпадает с наружностью Валерия из N-ска, который скрывается от коллекторов по путевке матери в крымском санатории…

Кинопоиск
Sample

Тип релиза: WEB-DL 1080p
Контейнер: MKV

Видео: MPEG4 AVC Video, H264, 1908x796, 23.976 fps, 4442 kbps
Аудио: Russian (AC3, 6 ch, 384 kbps, 16 bits, 48.0 KHz) - оригинал
General
Unique ID : 192338379241427051854829749426723535816 (0x90B3063F506C2BD19AA939238CE8BBC8)
Complete name : D:\Каникулы президента 2018 WEB-DL 1080p.mkv
Format : Matroska
Format version : Version 2
File size : 3.40 GiB
Duration : 1h 38mn
Overall bit rate : 4 924 Kbps
Encoded date : UTC 2018-04-29 18:34:45
Writing application : mkvmerge v8.3.0 ('Over the Horizon') 64bit
Writing library : libebml v1.3.1 + libmatroska v1.4.2
DURATION : 01:38:47.136000000
NUMBER_OF_FRAMES : 185223
NUMBER_OF_BYTES : 284502528
_STATISTICS_WRITING_APP : mkvmerge v8.3.0 ('Over the Horizon') 64bit
_STATISTICS_WRITING_DATE_UTC : 2018-04-29 18:34:45
_STATISTICS_TAGS : BPS DURATION NUMBER_OF_FRAMES NUMBER_OF_BYTES

Video
ID : 1
Format : AVC
Format/Info : Advanced Video Codec
Format profile : [email protected]
Format settings, CABAC : Yes
Format settings, ReFrames : 5 frames
Format settings, GOP : N=1
Codec ID : V_MPEG4/ISO/AVC
Duration : 1h 38mn
Bit rate : 4 442 Kbps
Width : 1 908 pixels
Height : 796 pixels
Display aspect ratio : 2.40:1
Frame rate mode : Constant
Frame rate : 23.976 fps
Color space : YUV
Chroma subsampling : 4:2:0
Bit depth : 8 bits
Scan type : Progressive
Bits/(Pixel*Frame) : 0.122
Stream size : 3.07 GiB (90%)
Language : English
Default : Yes
Forced : No
Color primaries : BT.709
Transfer characteristics : BT.709
Matrix coefficients : BT.709

Audio
ID : 2
Format : AC-3
Format/Info : Audio Coding 3
Mode extension : CM (complete main)
Format settings, Endianness : Big
Codec ID : A_AC3
Duration : 1h 38mn
Bit rate mode : Constant
Bit rate : 384 Kbps
Channel count : 6 channels
Channel positions : Front: L C R, Side: L R, LFE
Sampling rate : 48.0 KHz
Bit depth : 16 bits
Compression mode : Lossy
Stream size : 271 MiB (8%)
Language : Russian
Default : Yes
Forced : No


Трекер:  [ 30-Апр-2018 11:01 ]

  

Скачать .torrent

Размер .torrent файла 17 KB


Размер: 3.4 GB
Хэш (hash) релиза: 7f4ed8dba96153d63c86944fb86133dab95dfd8f
Подписка на обновления:

Еще никто не оставлял запись к записи скачать торрент Каникулы президента . Будь первым!

!Обратная связь